<?xml version="1.0" standalone="no"?>
<!DOCTYPE svg PUBLIC "-//W3C//DTD SVG 1.1//EN" "http://www.w3.org/Graphics/SVG/1.1/DTD/svg11.dtd" >
<svg xmlns="http://www.w3.org/2000/svg">
<metadata>Generated by IcoMoon</metadata>
<defs>
<font id="syneicons" horiz-adv-x="1024">
<font-face units-per-em="1024" ascent="960" descent="-64" />
<missing-glyph horiz-adv-x="1024" />
<glyph unicode="&#x20;" horiz-adv-x="512" d="" />
<glyph unicode="&#xe900;" glyph-name="search" d="M1013.76-2.068l-364.339 364.319c51.464 62.566 82.667 143.489 82.667 231.701 0 202.158-163.881 366.039-366.039 366.039s-366.039-163.881-366.039-366.039c0-202.158 163.881-366.039 366.039-366.039 88.211 0 169.134 31.203 232.335 83.173l-0.634-0.506 364.319-364.339c6.615-6.615 15.752-10.706 25.846-10.706 20.187 0 36.551 16.365 36.551 36.551 0 10.093-4.091 19.231-10.706 25.846v0zM366.592 301.005c-161.45 0.023-292.321 130.909-292.321 292.362 0 161.467 130.895 292.362 292.362 292.362 161.453 0 292.339-130.871 292.362-292.319v-0.003c-0.163-161.424-130.979-292.24-292.388-292.403h-0.016z" />
<glyph unicode="&#xe901;" glyph-name="check-mark" d="M400.512 215.456l416 416-49.088 49.088-366.912-367.744-144.768 144.768-48.256-49.088z" />
<glyph unicode="&#xe902;" glyph-name="stories" d="M944 86v874h-759c-57.898 0-105-47.104-105-105v-814c0-57.896 47.102-105 105-105h759v60h-60v90h60zM512 900h120v-437.574l-60 60-60-60v437.574zM140 855c0 24.812 20.186 45 45 45h15v-754h-15c-16.092 0-31.354-3.64-45-10.138v719.138zM824-4h-639c-24.814 0-45 20.188-45 45s20.186 45 45 45h639v-90zM260 146v754h192v-582.426l120 120 120-120v582.426h192v-754h-624z" />
<glyph unicode="&#xe903;" glyph-name="share" horiz-adv-x="925" d="M771.084-64c0.102 0 0.223 0 0.344 0 27.283 0 52.742 7.81 74.264 21.315l-0.583-0.342c22.867 13.956 41.407 32.892 54.5 55.389l0.401 0.746c12.791 21.315 20.357 47.033 20.357 74.518 0 0.043 0 0.087 0 0.13v-0.007c0 0.125 0.001 0.273 0.001 0.421 0 27.179-7.57 52.589-20.716 74.239l0.359-0.636c-13.512 22.844-32.057 41.389-54.193 54.513l-0.708 0.389c-21.014 12.788-46.424 20.357-73.603 20.357-0.148 0-0.296 0-0.444-0.001h0.023c-0.229 0.001-0.5 0.002-0.771 0.002-38.621 0-73.852-14.51-100.541-38.376l0.146 0.128-366.419 212.202c2.566 10.864 4.333 23.558 4.919 36.559l0.016 0.453c-0.523 12.514-2.292 24.353-5.193 35.74l0.258-1.195 361.484 212.202c27.679-26.172 64.92-42.484 105.964-43.179l0.137-0.002c0.111 0 0.243 0 0.375 0 28.097 0 54.372 7.798 76.781 21.347l-0.665-0.373c23.663 13.903 42.848 33.089 56.353 56.020l0.399 0.732c13.179 21.867 20.975 48.269 20.975 76.492s-7.796 54.624-21.353 77.169l0.378-0.677c-13.903 23.663-33.089 42.848-56.020 56.353l-0.732 0.399c-21.867 13.179-48.269 20.975-76.492 20.975s-54.624-7.796-77.169-21.353l0.677 0.378c-23.663-13.903-42.848-33.089-56.353-56.020l-0.399-0.732c-13.176-21.744-20.974-48.019-20.974-76.116 0-0.132 0-0.264 0.001-0.396v0.021c0.681-13.068 2.443-25.326 5.214-37.196l-0.279 1.418-361.484-209.735c-27.001 25.239-63.385 40.738-103.388 40.738-0.954 0-1.906-0.009-2.855-0.026l0.142 0.002c-0.111 0-0.243 0-0.375 0-28.097 0-54.372-7.798-76.781-21.347l0.665 0.373c-23.663-13.903-42.848-33.089-56.353-56.020l-0.399-0.732c-13.179-21.867-20.975-48.269-20.975-76.492s7.796-54.624 21.353-77.169l-0.378 0.677c13.903-23.663 33.089-42.848 56.020-56.353l0.732-0.399c21.744-13.176 48.019-20.974 76.116-20.974 0.132 0 0.264 0 0.396 0.001h-0.021c0.807-0.015 1.759-0.024 2.713-0.024 40.004 0 76.387 15.498 103.475 40.817l-0.086-0.080 363.952-212.202c-1.653-8.173-2.598-17.567-2.598-27.183 0-2.155 0.048-4.299 0.142-6.431l-0.011 0.303c0-0.037 0-0.080 0-0.123 0-27.485 7.565-53.202 20.727-75.185l-0.37 0.667c13.494-23.243 32.034-42.178 54.216-55.745l0.686-0.39c20.938-13.164 46.397-20.974 73.681-20.974 0.121 0 0.241 0 0.362 0h-0.019z" />
<glyph unicode="&#xe904;" glyph-name="smiley" d="M512-64c0.933-0.006 2.036-0.010 3.14-0.010 70.929 0 138.422 14.716 199.59 41.261l-3.245-1.254c123.452 52.714 219.792 149.054 271.243 269.189l1.264 3.318c25.298 57.931 40.017 125.432 40.017 196.372 0 1.098-0.004 2.196-0.011 3.293l0.001-0.169c0.006 0.933 0.010 2.036 0.010 3.14 0 70.929-14.716 138.422-41.261 199.59l1.254-3.245c-52.717 123.454-149.061 219.794-269.2 271.244l-3.317 1.263c-57.931 25.298-125.431 40.017-196.369 40.017-1.096 0-2.19-0.004-3.284-0.011l0.168 0.001c-0.926 0.006-2.020 0.010-3.116 0.010-70.938 0-138.439-14.72-199.614-41.271l3.244 1.254c-123.452-52.714-219.792-149.054-271.243-269.189l-1.264-3.318c-25.298-57.931-40.017-125.431-40.017-196.369 0-1.096 0.004-2.19 0.011-3.284l-0.001 0.168c-0.006-0.948-0.010-2.069-0.010-3.19 0-70.913 14.72-138.389 41.271-199.537l-1.254 3.242c52.714-123.452 149.054-219.792 269.189-271.243l3.318-1.264c57.931-25.298 125.431-40.017 196.369-40.017 1.096 0 2.19 0.004 3.284 0.011l-0.168-0.001zM512 0c-0.861-0.006-1.878-0.010-2.897-0.010-62.056 0-121.058 13.079-174.399 36.632l2.765-1.089c-107.364 46.69-191.256 130.582-236.815 235.033l-1.132 2.913c-22.451 50.563-35.522 109.549-35.522 171.587 0 1.031 0.004 2.062 0.011 3.092l-0.001-0.158c-0.006 0.873-0.010 1.904-0.010 2.937 0 62.038 13.076 121.022 36.621 174.347l-1.089-2.764c46.686 107.367 130.575 191.263 235.024 236.825l2.913 1.132c50.563 22.451 109.549 35.522 171.587 35.522 1.035 0 2.069-0.004 3.102-0.011l-0.159 0.001c0.873 0.006 1.904 0.010 2.937 0.010 62.038 0 121.022-13.076 174.347-36.621l-2.764 1.089c107.363-46.688 191.255-130.577 236.815-235.024l1.132-2.912c22.457-50.575 35.532-109.574 35.532-171.627 0-1.021-0.004-2.041-0.011-3.060l0.001 0.156c0.006-0.873 0.010-1.904 0.010-2.937 0-62.038-13.076-121.022-36.621-174.347l1.089 2.764c-46.69-107.364-130.582-191.256-235.033-236.815l-2.913-1.132c-50.569-22.457-109.563-35.532-171.61-35.532-1.023 0-2.045 0.004-3.066 0.011l0.156-0.001zM352 480c0.22-0.003 0.48-0.005 0.74-0.005 17.248 0 32.792 7.299 43.711 18.976l0.031 0.034c11.468 11.535 18.557 27.434 18.557 44.989s-7.089 33.455-18.559 44.992l0.003-0.003c-10.962 11.712-26.516 19.010-43.774 19.010-0.249 0-0.498-0.002-0.747-0.005h0.038c-0.353 0.007-0.769 0.012-1.185 0.012-17.408 0-33.112-7.293-44.225-18.991l-0.025-0.026c-11.468-11.535-18.557-27.434-18.557-44.989s7.089-33.455 18.559-44.992l-0.003 0.003c11.111-11.723 26.794-19.018 44.18-19.018 0.441 0 0.881 0.005 1.32 0.014l-0.066-0.001zM671.99 480c0.22-0.003 0.48-0.005 0.74-0.005 17.248 0 32.792 7.299 43.711 18.976l0.031 0.034c11.468 11.535 18.557 27.434 18.557 44.989s-7.089 33.455-18.559 44.992l0.003-0.003c-10.962 11.712-26.516 19.010-43.774 19.010-0.249 0-0.498-0.002-0.747-0.005h0.038c-0.353 0.007-0.769 0.012-1.185 0.012-17.408 0-33.112-7.293-44.225-18.991l-0.025-0.026c-11.468-11.535-18.557-27.434-18.557-44.989s7.089-33.455 18.559-44.992l-0.003 0.003c11.111-11.724 26.794-19.019 44.181-19.019 0.445 0 0.888 0.005 1.33 0.014l-0.066-0.001zM505.979 126.024l1.024 0.133 0.963 0.379c0.572 0.285 1.246 0.451 1.959 0.451 0.031 0 0.063 0 0.094-0.001h-0.005c2.469-0.078 5.373-0.122 8.287-0.122 44.647 0 86.867 10.39 124.374 28.884l-1.65-0.736c33.839 17.076 62.946 37.56 88.65 61.632l-0.208-0.192c19.458 18.045 36.213 38.61 49.851 61.264l0.704 1.261c10.619 19.323 16.323 30.075 16.957 32 2.066 3.779 3.28 8.279 3.28 13.063 0 3.955-0.83 7.715-2.326 11.117l0.070-0.177c-3.316 7.977-9.3 14.293-16.815 17.953l-0.204 0.090c-3.781 1.65-8.186 2.61-12.816 2.61-4.206 0-8.227-0.792-11.922-2.236l0.223 0.077c-8.001-2.73-14.281-8.675-17.4-16.255l-0.069-0.19c0-0.645-4.352-8.509-12.995-23.552-11.774-18.793-25.164-35.033-40.383-49.352l-0.126-0.118c-20.486-19.396-43.86-36.049-69.341-49.188l-1.694-0.794c-28.643-14.583-62.465-23.126-98.283-23.126-2.168 0-4.329 0.031-6.482 0.093l0.316-0.007c-0.009 0-0.019 0-0.029 0-0.712 0-1.385-0.166-1.983-0.462l0.026 0.012-1.024-0.512c-1.714-0.051-3.73-0.080-5.752-0.080-34.221 0-66.496 8.332-94.907 23.078l1.147-0.541c-26.151 13.844-48.663 30.15-68.599 49.137l0.124-0.118c-15.417 14.539-28.821 30.955-39.915 48.946l-0.594 1.035c-8.96 15.677-13.824 24.187-14.459 25.539-5.278 11.094-16.396 18.626-29.274 18.626-4.616 0-9.007-0.968-12.979-2.712l0.207 0.081c-8.052-3.441-14.279-9.854-17.395-17.826l-0.075-0.217c-1.211-3.206-1.912-6.912-1.912-10.781 0-5.171 1.252-10.049 3.469-14.349l-0.082 0.176c0.645-1.341 6.523-11.837 17.531-31.488 14.436-24.054 31.163-44.772 50.355-62.907l0.139-0.13c24.927-23.851 53.379-44.317 84.431-60.476l2.036-0.964c34.447-17.731 75.171-28.125 118.322-28.125 2.525 0 5.041 0.036 7.549 0.106l-0.369-0.008z" />
<glyph unicode="&#xe905;" glyph-name="timeline" d="M952.023-64c21.246 0.351 39.863 11.291 50.842 27.758l0.143 0.228c13.147 17.949 21.037 40.467 21.037 64.828 0 1.106-0.016 2.208-0.049 3.306l0.004-0.161v832.082c0.029 0.937 0.045 2.039 0.045 3.145 0 24.361-7.89 46.88-21.254 65.139l0.217-0.311c-11.122 16.695-29.739 27.635-50.932 27.985l-0.053 0.001h-880.046c-21.246-0.351-39.863-11.291-50.842-27.758l-0.143-0.228c-13.147-17.949-21.037-40.467-21.037-64.828 0-1.106 0.016-2.208 0.049-3.306l-0.004 0.161v-832.082c-0.029-0.937-0.045-2.039-0.045-3.145 0-24.361 7.89-46.88 21.254-65.139l-0.217 0.311c11.122-16.695 29.739-27.635 50.932-27.985l0.053-0.001h880.046zM952.023 672.010h-880.046v192.031h880.046v-192.123zM135.977 719.995c10.647 0.164 19.976 5.657 25.457 13.924l0.072 0.115c6.592 8.933 10.551 20.16 10.551 32.312 0 0.574-0.009 1.147-0.026 1.717l0.002-0.083c0.015 0.482 0.024 1.049 0.024 1.619 0 12.188-3.962 23.452-10.668 32.572l0.107-0.153c-5.557 8.36-14.892 13.825-25.51 13.947h-0.018c-10.877-0.333-20.35-6.048-25.883-14.56l-0.076-0.124c-6.29-8.721-10.060-19.622-10.060-31.404 0-0.685 0.013-1.367 0.038-2.046l-0.003 0.098c-0.015-0.48-0.024-1.044-0.024-1.61 0-12.158 3.962-23.39 10.666-32.475l-0.106 0.15c5.533-8.362 14.838-13.841 25.433-13.998h0.023zM239.985 719.995c10.647 0.164 19.976 5.657 25.457 13.924l0.072 0.115c6.55 8.909 10.483 20.096 10.483 32.202 0 0.61-0.010 1.217-0.030 1.822l0.002-0.088c0.018 0.518 0.028 1.128 0.028 1.74 0 12.137-3.932 23.356-10.591 32.453l0.108-0.155c-5.557 8.36-14.892 13.825-25.51 13.947h-0.018c-10.879-0.327-20.356-6.039-25.893-14.55l-0.075-0.124c-6.29-8.721-10.060-19.622-10.060-31.404 0-0.685 0.013-1.367 0.038-2.046l-0.003 0.098c-0.015-0.48-0.024-1.044-0.024-1.61 0-12.158 3.962-23.39 10.666-32.475l-0.106 0.15c5.533-8.362 14.838-13.841 25.433-13.998h0.023zM343.992 719.995c10.647 0.164 19.976 5.657 25.457 13.924l0.072 0.115c6.549 8.959 10.478 20.193 10.478 32.345 0 0.559-0.008 1.116-0.025 1.672l0.002-0.081c0.015 0.476 0.023 1.035 0.023 1.597 0 12.184-3.929 23.45-10.588 32.6l0.11-0.159c-5.557 8.36-14.892 13.825-25.51 13.947h-0.018c-10.884-0.308-20.369-6.026-25.893-14.55l-0.076-0.124c-6.29-8.721-10.060-19.622-10.060-31.404 0-0.685 0.013-1.367 0.038-2.046l-0.003 0.098c-0.014-0.457-0.021-0.995-0.021-1.534 0-12.158 3.933-23.398 10.595-32.517l-0.109 0.156c5.568-8.398 14.927-13.896 25.579-14.039h0.021zM256 31.959h-184.023v544.041h184.023v-544.041zM952.023 350.72c0 1.024-0.369 1.362-1.024 1.362h-621.998c-0.727 0-1.024-0.492-1.024-1.362v225.28h624.046v-225.28zM952.023 32.010h-624.046v225.28c0-0.778 0.369-1.27 1.024-1.27h621.998c0.727 0 1.024 0.492 1.024 1.362v-225.28z" />
<glyph unicode="&#xe906;" glyph-name="aboutme" horiz-adv-x="1025" d="M961.103-62.21c34.688 0.116 62.779 28.193 62.918 62.864v96.773q0 27.941-31.5 45.429l-31.5 17.448-278.876 132.729c22.022 17.458 40.59 38.087 55.321 61.384l0.592 1.002c14.073 21.782 26.557 46.813 36.177 73.221l0.836 2.624c8.234 21.949 15.189 47.967 19.659 74.825l0.345 2.513c3.492 19.88 5.655 42.963 5.98 66.491l0.003 0.313v159.77c-0.65 29.856-10.065 57.389-25.761 80.275l0.326-0.503c-18.254 27.93-40.139 51.673-65.351 71.351l-0.645 0.485c-26.42 20.819-56.812 38.308-89.576 51.049l-2.408 0.824c-30.947 12.604-66.847 19.96-104.453 20.055h-0.038c-37.806-0.132-73.865-7.449-106.936-20.656l1.964 0.692c-35.333-13.542-65.871-31.036-93.183-52.454l0.77 0.582c-25.779-20.1-47.528-43.886-64.84-70.796l-0.675-1.122c-15.111-22.458-24.347-49.977-24.962-79.615l-0.003-0.157v-159.718c0.381-22.657 2.542-44.528 6.35-65.827l-0.368 2.479c4.825-29.086 11.935-54.908 21.389-79.569l-0.934 2.773c11.17-29.802 23.775-55.294 38.568-79.294l-1.116 1.946c15.407-25.349 34.38-46.814 56.528-64.465l0.489-0.376-280.983-132.954-31.96-18.429c-21.232-12.262-31.97-27.112-31.97-44.407v-96.678c-0.004-0.259-0.006-0.566-0.006-0.872 0-17.091 7.094-32.524 18.499-43.516l0.019-0.018c11.197-11.413 26.782-18.487 44.019-18.487 0.5 0 0.998 0.006 1.495 0.018l-0.074-0.001zM65.199 0.667v64.841c-0.138 1.111-0.217 2.396-0.217 3.7 0 9.471 4.153 17.972 10.737 23.781l0.034 0.030c4.767 3.699 10.221 6.868 16.074 9.262l0.464 0.168 280.921 132.678c9.98 4.692 18.216 11.658 24.283 20.262l0.129 0.193c6.002 8.345 10.402 18.261 12.521 28.997l0.079 0.478c0.286 2.277 0.45 4.911 0.45 7.584 0 8.983-1.847 17.534-5.181 25.295l0.159-0.417c-4.298 10.268-10.941 18.822-19.29 25.278l-0.142 0.105c-34.476 28.923-60.154 67.291-73.111 111.119l-0.412 1.625c-13.141 35.408-21.604 76.329-23.492 118.96l-0.030 0.862v159.545c0.99 20.14 8.183 38.428 19.691 53.186l-0.157-0.209c14.513 20.101 31.536 37.241 50.864 51.424l0.64 0.448c20.733 15.553 44.493 28.818 69.948 38.682l2.031 0.692c23.904 9.797 51.647 15.484 80.718 15.484s56.815-5.687 82.178-16.009l-1.459 0.525c27.482-10.385 51.249-23.486 72.783-39.432l-0.804 0.569c19.895-14.569 36.903-31.544 51.050-50.755l0.455-0.647c11.753-14.71 19.154-33.354 20.008-53.689l0.006-0.188v-159.708c-1.857-43.205-9.576-83.959-22.386-122.384l0.909 3.145c-12.186-46.032-38.108-84.84-73.053-112.86l-0.419-0.325c-8.526-6.586-15.201-15.166-19.381-25.059l-0.153-0.407c-3.127-7.322-4.944-15.84-4.944-24.783 0-14.325 4.664-27.561 12.556-38.272l-0.125 0.178c6.468-8.759 14.892-15.712 24.652-20.288l0.395-0.166 278.896-131.706c5.337-2.177 9.766-4.365 14.022-6.819l-0.553 0.294c8.345-4.326 12.518-15.095 12.518-32.379v-61.854l-894.748-1.023z" />
<glyph unicode="&#xe907;" glyph-name="add-plus" d="M584.123-64v439.877h439.877v144.284h-439.877v439.839h-144.284v-439.877h-439.839v-144.284h439.877v-439.839z" />
<glyph unicode="&#xe908;" glyph-name="attach1" d="M385.7-63.457c0.488-0.002 1.065-0.004 1.642-0.004 51.516 0 100.668 10.119 145.577 28.478l-2.57-0.929c49.239 19.583 91.272 47.577 126.302 82.578l-0.002-0.002 284.733 281.139c51.034 50.749 82.618 121.010 82.618 198.648 0 0.338-0.001 0.675-0.002 1.012v-0.052c0.025 1.366 0.039 2.978 0.039 4.593 0 77.109-32.127 146.715-83.726 196.162l-0.097 0.092c-50.577 51.028-120.69 82.621-198.182 82.621-1.776 0-3.548-0.017-5.317-0.050l0.265 0.004c-0.271 0.001-0.591 0.001-0.912 0.001-38.538 0-75.306-7.576-108.896-21.32l1.92 0.695c-36.613-14.516-67.909-35.13-94.149-60.878l0.044 0.043-267.5-265.062c-29.405-27.726-47.713-66.943-47.713-110.437 0-1.315 0.017-2.626 0.050-3.933l-0.004 0.193c0.811-89.752 73.71-162.209 163.554-162.304h1.187c0.886-0.018 1.931-0.028 2.978-0.028 43.822 0 83.431 18.041 111.803 47.101l0.030 0.031 235.295 231.731c7.115 7.456 11.494 17.578 11.494 28.723s-4.379 21.267-11.51 28.74l0.015-0.016c-7.651 7.116-17.944 11.484-29.256 11.484s-21.604-4.367-29.282-11.508l0.026 0.024-234.168-231.834c-14.293-14.901-34.367-24.161-56.604-24.161-0.303 0-0.606 0.002-0.908 0.005h-1.091c-22.43 0.218-42.671 9.411-57.341 24.153l-0.003 0.003c-14.871 14.378-24.103 34.508-24.103 56.793 0 0.413 0.003 0.826 0.010 1.238l-0.001-0.062c-0.014 0.54-0.021 1.176-0.021 1.814 0 21.483 8.786 40.915 22.96 54.897l0.009 0.009 267.387 265.032c37.451 35.567 88.201 57.443 144.061 57.443 56.723 0 108.178-22.558 145.883-59.191l-0.050 0.049c37.191-35.232 60.333-84.97 60.333-140.113 0-0.972-0.007-1.943-0.022-2.912l0.002 0.146c0.017-0.948 0.026-2.067 0.026-3.187 0-54.725-22.898-104.103-59.636-139.074l-0.079-0.075-283.556-281.037c-52.946-53.178-126.214-86.086-207.168-86.086-2.246 0-4.485 0.025-6.719 0.076l0.332-0.006c-1.6-0.031-3.486-0.049-5.377-0.049-81.936 0-156.023 33.604-209.231 87.783l-0.043 0.044c-54.872 52.763-88.959 126.795-88.959 208.789 0 1.021 0.005 2.040 0.016 3.058l-0.001-0.155c-0.039 1.748-0.061 3.808-0.061 5.873 0 80.68 33.699 153.489 87.789 205.12l0.11 0.105 366.162 362.598c7.097 6.949 11.496 16.628 11.496 27.335 0 0.258-0.003 0.515-0.008 0.771l0.001-0.038c0.001 0.090 0.001 0.196 0.001 0.302 0 11.233-4.373 21.445-11.51 29.026l0.020-0.022c-7.667 7.079-17.954 11.421-29.256 11.421s-21.588-4.341-29.285-11.447l0.029 0.027-366.234-362.598c-34.948-34.885-63.247-76.418-82.839-122.542l-0.955-2.53c-17.434-42.2-27.557-91.2-27.557-142.564 0-0.28 0-0.56 0.001-0.839v0.044c0-0.194-0.001-0.424-0.001-0.654 0-51.576 10.566-100.685 29.651-145.279l-0.917 2.409c20.132-49.185 48.491-91.146 83.761-126.155l0.023-0.023c35.49-34.851 77.854-62.839 124.854-81.727l2.562-0.909c42.508-18.135 91.961-28.677 143.876-28.677 0.665 0 1.329 0.002 1.993 0.005h-0.103z" />
<glyph unicode="&#xe909;" glyph-name="camera" horiz-adv-x="1280" d="M1162.496-28.941c30.347 1.426 57.58 13.693 78.146 32.983l-0.066-0.061c23.592 17.668 38.851 45.35 39.423 76.619l0.001 0.091v592.166q0 27.75-30.016 69.261t-89.984 41.549h-183.744l-96.256 147.75h-480l-96.256-147.75h-183.744q-30.054 0-75.008-27.712c-27.136-15.859-45.076-44.849-45.076-78.029 0-1.369 0.031-2.73 0.091-4.084l-0.007 0.192v-592.218c-0.002-0.233-0.003-0.508-0.003-0.783 0-31.122 14.014-58.971 36.075-77.582l0.152-0.125c19.36-19.144 45.672-31.293 74.813-32.327l0.195-0.005h1051.264zM1162.496 44.928h-1049.984c-7.987 1.453-14.876 5.391-20.009 10.97l-0.023 0.025c-7.589 6.153-12.417 15.453-12.48 25.884v592.229c0 0.007 0 0.014 0 0.022 0 11.821 7.11 21.982 17.286 26.44l0.186 0.072c6.471 4.113 14.002 7.297 22.048 9.124l0.48 0.092h228.736l96.256 147.712h392.512l71.296-111.949 22.528-35.75h228.736c0.606 0.041 1.315 0.064 2.028 0.064 12.399 0 23.169-6.971 28.607-17.207l0.085-0.175c3.529-5.624 6.683-12.101 9.124-18.918l0.22-0.704v-592.166c-1.409-9.463-6.75-17.456-14.277-22.388l-0.123-0.076c-6.218-6.172-13.988-10.789-22.674-13.212l-0.366-0.087zM640 155.738c0.455-0.003 0.994-0.004 1.533-0.004 75.761 0 144.813 28.723 196.86 75.874l-0.249-0.222c50.352 45.117 81.888 110.348 81.888 182.944s-31.536 137.827-81.656 182.74l-0.232 0.204c-52.344 46.926-121.877 75.616-198.112 75.616s-145.768-28.691-198.392-75.863l0.28 0.247c-50.352-45.117-81.888-110.348-81.888-182.944s31.536-137.827 81.656-182.74l0.232-0.204c51.801-46.929 120.854-75.652 196.616-75.652 0.515 0 1.029 0.001 1.543 0.004h-0.079zM640 229.606c-1.149-0.024-2.505-0.037-3.863-0.037-53.186 0-101.547 20.662-137.493 54.396l0.108-0.1c-36.111 32.059-58.753 78.601-58.753 130.432s22.642 98.373 58.574 130.276l0.179 0.156c35.832 33.604 84.171 54.246 137.332 54.246 1.377 0 2.751-0.014 4.121-0.041l-0.205 0.003c1.167 0.024 2.543 0.038 3.922 0.038 53.168 0 101.509-20.663 137.432-54.397l-0.107 0.099c36.111-32.059 58.753-78.601 58.753-130.432s-22.642-98.373-58.574-130.276l-0.179-0.156c-35.83-33.597-84.164-54.234-137.318-54.234-1.382 0-2.76 0.014-4.135 0.042l0.206-0.003z" />
<glyph unicode="&#xe90a;" glyph-name="edit" d="M0 134.574v-198.543h198.574l585.902 585.882-198.564 198.574zM1008.517 820.869l-123.648 123.638c-9.596 9.57-22.838 15.488-37.463 15.488s-27.867-5.918-37.464-15.489l-96.9-96.9 198.574-198.574 96.901 96.901c9.573 9.596 15.493 22.841 15.493 37.468s-5.92 27.872-15.494 37.469l0.001-0.001z" />
<glyph unicode="&#xe90b;" glyph-name="event" d="M941.732-64c0.101 0 0.22-0.001 0.339-0.001 45.243 0 81.92 36.677 81.92 81.92 0 0.119 0 0.238-0.001 0.357v-0.018 786.289c0.001 0.116 0.001 0.253 0.001 0.39 0 45.243-36.677 81.92-81.92 81.92-0.119 0-0.238 0-0.357-0.001h-137.198v31.98c0.005 0.232 0.008 0.505 0.008 0.779 0 11.12-4.573 21.171-11.94 28.377l-0.007 0.007c-7.475 7.413-17.769 11.993-29.133 11.993s-21.657-4.581-29.136-11.996l0.003 0.003c-7.441-7.222-12.058-17.318-12.058-28.492 0-0.236 0.002-0.472 0.006-0.707v0.035-31.98h-420.516v31.98c0.005 0.229 0.007 0.499 0.007 0.77 0 11.125-4.577 21.18-11.95 28.387l-0.008 0.007c-7.475 7.413-17.769 11.993-29.133 11.993s-21.657-4.581-29.136-11.996l0.003 0.003c-7.435-7.222-12.048-17.313-12.048-28.482 0-0.24 0.002-0.479 0.006-0.717l-0.001 0.036v-31.98h-137.216c-0.414 0.008-0.902 0.012-1.391 0.012-22.293 0-42.44-9.19-56.858-23.987l-0.017-0.017c-14.816-14.429-24.007-34.571-24.007-56.86 0-0.53 0.005-1.059 0.016-1.587l-0.001 0.079v-786.237c-0.008-0.414-0.012-0.902-0.012-1.391 0-22.293 9.19-42.44 23.987-56.858l0.017-0.017c14.44-14.816 34.592-24.006 56.889-24.006 0.52 0 1.039 0.005 1.556 0.015l-0.078-0.001zM941.732 676.588h-859.412v128h137.114v-22.917c0.086-22.692 18.501-41.055 41.205-41.055 11.341 0 21.612 4.582 29.063 11.995l-0.002-0.002c7.435 7.222 12.048 17.313 12.048 28.482 0 0.24-0.002 0.479-0.006 0.717l0.001-0.036v22.774h420.567v-22.825c-0.003-0.193-0.005-0.421-0.005-0.649 0-22.718 18.416-41.134 41.134-41.134s41.134 18.416 41.134 41.134c0 0.228-0.002 0.456-0.006 0.683v-0.034 22.825h137.216v-128zM941.732 18.309h-859.412v575.969h859.412v-576.020zM329.144 374.856c19.936 0.344 35.965 16.586 35.965 36.572s-16.029 36.228-35.933 36.572h-73.176c-19.936-0.344-35.965-16.586-35.965-36.572s16.029-36.228 35.933-36.572h0.032zM548.567 374.856c19.936 0.344 35.965 16.586 35.965 36.572s-16.029 36.228-35.933 36.572h-73.166c-19.936-0.344-35.965-16.586-35.965-36.572s16.029-36.228 35.933-36.572h0.032zM767.99 374.856c19.936 0.344 35.965 16.586 35.965 36.572s-16.029 36.228-35.933 36.572h-73.166c-19.936-0.344-35.965-16.586-35.965-36.572s16.029-36.228 35.933-36.572h0.032zM329.144 153.088c19.936 0.344 35.965 16.586 35.965 36.572s-16.029 36.228-35.933 36.572h-73.176c-19.936-0.344-35.965-16.586-35.965-36.572s16.029-36.228 35.933-36.572h0.032zM548.567 153.088c19.936 0.344 35.965 16.586 35.965 36.572s-16.029 36.228-35.933 36.572h-73.166c-19.936-0.344-35.965-16.586-35.965-36.572s16.029-36.228 35.933-36.572h0.032z" />
<glyph unicode="&#xe90c;" glyph-name="location" d="M524.958-24.616c12.288 0 23.079 3.86 32.295 11.5 9.216 7.719 13.863 11.815 13.863 12.524 30.169 34.422 62.464 73.807 96.886 118.154 34.501 44.268 66.481 91.215 96.020 140.761s54.036 100.037 73.413 151.394c19.377 51.358 29.066 101.612 29.066 150.922 0 48.601-7.877 94.759-23.631 138.476-15.596 43.638-38.361 81.92-68.214 114.846-29.932 32.926-66.639 58.998-110.277 77.982-43.717 19.22-93.342 28.672-148.716 28.672-48.679 0-94.681-9.531-138.004-28.593-43.402-19.062-81.447-45.135-114.058-77.982-32.61-32.926-58.447-71.286-77.509-115.003-19.062-43.638-28.593-89.797-28.593-138.398 0-51.121 10.634-102.164 31.823-153.285 21.268-51.042 47.734-100.746 79.399-149.031s66.166-94.287 103.345-138.004c37.258-43.717 71.838-84.047 103.897-120.911 0-0.63 4.411-4.726 13.391-12.524 8.901-7.641 19.85-11.5 32.768-11.5h2.757zM523.068 35.406l-3.623 3.702-15.754 17.487c-30.169 35.131-62.149 72.783-95.941 113.113-33.871 40.33-64.985 82.156-93.263 125.558-28.357 43.323-51.673 87.434-70.105 132.411-18.511 44.898-27.727 89.246-27.727 132.962 0 40.566 7.956 79.242 23.946 115.791 16.069 36.628 37.573 68.608 64.591 96.098 27.175 27.333 58.841 48.994 95.153 64.985 36.234 15.99 74.752 24.025 115.397 24.025 50.412 0 93.972-8.665 130.599-25.836 36.628-17.25 66.954-40.015 90.9-68.293 24.025-28.357 41.748-60.495 53.090-96.492 11.422-35.998 17.093-72.783 17.093-110.277 0-33.241-5.829-69.081-17.566-107.599-11.658-38.439-29.223-79.321-52.618-122.722-23.394-43.323-52.618-89.403-87.67-138.004s-76.012-99.722-122.801-153.206c0-0.63-0.473-1.26-1.339-1.89-0.945-0.63-1.733-1.182-2.363-1.812zM512.906 387.978c49.231 0 91.136 17.25 125.558 51.751 34.501 34.422 51.673 76.249 51.673 125.479 0 48.601-17.172 90.348-51.673 125.086-34.422 34.816-76.327 52.145-125.558 52.145-48.601 0-90.27-17.329-125.007-52.145-34.816-34.737-52.224-76.406-52.224-125.086 0-49.231 17.408-91.057 52.224-125.479 34.737-34.501 76.406-51.751 125.007-51.751zM512.906 447.054c-32.61 0-60.574 11.737-83.968 35.131-23.394 23.316-35.052 51.358-35.052 83.968s11.5 60.495 34.658 83.495c23.001 23.158 50.885 34.658 83.495 34.658s60.416-11.5 83.495-34.658c23.079-23.001 34.658-50.885 34.658-83.495s-11.422-60.652-34.186-83.968c-22.764-23.394-50.412-35.131-83.102-35.131z" />
<glyph unicode="&#xe90d;" glyph-name="more" d="M512 318.976c34.816 0 65.024 12.8 90.624 38.4s38.4 55.808 38.4 90.624c0 34.816-12.8 65.024-38.4 90.624s-55.808 38.4-90.624 38.4c-34.816 0-65.024-12.8-90.624-38.4s-38.4-55.808-38.4-90.624c0-34.816 12.8-65.024 38.4-90.624s55.808-38.4 90.624-38.4zM896 318.976c34.816 0 65.024 12.8 90.624 38.4s38.4 55.808 38.4 90.624c0 34.816-12.8 65.024-38.4 90.624s-55.808 38.4-90.624 38.4c-34.816 0-65.024-12.8-90.624-38.4s-38.4-55.808-38.4-90.624c0-34.816 12.8-65.024 38.4-90.624s55.808-38.4 90.624-38.4zM128 318.976c34.816 0 65.024 12.8 90.624 38.4s38.4 55.808 38.4 90.624c0 34.816-12.8 65.024-38.4 90.624s-55.808 38.4-90.624 38.4c-34.816 0-65.024-12.8-90.624-38.4s-38.4-55.808-38.4-90.624c0-34.816 12.8-65.024 38.4-90.624s55.808-38.4 90.624-38.4z" />
<glyph unicode="&#xe90e;" glyph-name="chat" d="M185.984-63.968c6.016 0 12.032 1.664 17.984 4.992l148.032 84.032c52.032-16 105.344-24 160-24 68.672 0 134.656 12.288 198.016 36.992 61.312 24.64 115.648 59.008 163.008 103.040 47.36 43.968 83.968 94.592 109.952 151.936 27.328 59.328 41.024 121.984 41.024 188.032 0 64.64-13.696 126.976-40.96 186.944-26.048 57.344-62.72 108.352-110.080 153.024-47.296 44.032-101.632 78.016-162.944 102.016-62.72 24.64-128.64 36.992-198.016 36.992-69.312 0-135.36-12.352-198.016-36.992-61.312-24-115.584-57.984-162.944-102.016-47.36-44.672-83.968-95.68-109.952-152.96-27.392-60.032-41.088-122.368-41.088-187.072 0-58.688 11.008-115.2 33.024-169.536 21.952-54.336 53.312-103.488 93.952-147.52l23.040-195.968c1.984-12.672 8.64-22.016 19.968-28.032 4.672-2.624 9.984-3.968 16-3.968zM214.976 30.048l-17.92 155.008c-0.704 8-4.032 14.976-10.048 20.992-37.312 37.312-65.856 79.68-85.504 126.976-19.648 47.36-29.504 96.64-29.504 148.032 0 54.656 11.328 106.944 33.984 156.992 22.016 48.64 53.376 91.968 94.016 129.984s87.36 67.328 140.032 88c54.656 21.312 112 32 171.968 32 60.032 0 117.312-10.688 172.032-32 52.608-21.312 99.328-50.816 139.968-88.512 40.64-37.632 72-80.832 94.016-129.472 22.656-50.048 33.984-102.528 33.984-157.504 0-55.040-11.328-107.52-33.984-157.504-22.016-48.64-53.376-92.032-94.016-129.984-40.64-37.376-87.36-66.368-140.032-87.040-54.656-22.016-112-32.96-171.968-32.96-52.672 0-103.36 8.32-152 24.96-10.688 3.328-20.672 2.368-30.016-3.008l-114.944-64.896zM292.032 424.992c15.36 0 28.288 5.312 38.976 16 10.688 10.624 16 23.68 16 38.976 0 15.36-5.312 28.352-16 39.040-10.688 10.624-23.68 16-39.040 16s-28.288-5.376-38.976-16c-10.688-10.688-16-23.68-16-39.040s5.312-28.352 16-39.040c10.688-10.624 23.68-16 39.040-16zM732.032 424.992c15.36 0 28.288 5.312 38.976 16 10.688 10.624 16 23.68 16 38.976 0 15.36-5.312 28.352-16 39.040-10.688 10.624-23.68 16-39.040 16s-28.288-5.376-38.976-16c-10.688-10.688-16-23.68-16-39.040s5.312-28.352 16-39.040c10.688-10.624 23.68-16 39.040-16zM512 424.992c15.36 0 28.352 5.312 39.040 16 10.624 10.624 16 23.68 16 38.976 0 15.36-5.376 28.352-16 39.040-10.688 10.624-23.68 16-39.040 16s-28.352-5.376-39.040-16c-10.624-10.688-16-23.68-16-39.040s5.376-28.352 16-39.040c10.688-10.624 23.68-16 39.040-16z" />
<glyph unicode="&#xe90f;" glyph-name="notif-icon" d="M512-64c19.968 0 36.992 7.040 51.008 20.992 13.952 14.016 20.992 31.040 20.992 51.008v48h275.968c9.984 0 18.56 3.52 25.536 10.496 6.976 7.040 10.496 15.488 10.496 25.536 0 9.984-3.52 18.496-10.496 25.472-7.040 7.040-15.552 10.496-25.536 10.496h-27.968v448c0 81.984-27.328 153.344-82.048 214.016-54.656 60.672-121.984 95.36-201.984 104v29.952c0 10.048-3.456 18.56-10.496 25.536-7.040 7.040-15.488 10.496-25.472 10.496-10.048 0-18.56-3.52-25.536-10.496-7.040-7.040-10.496-15.488-10.496-25.472v-30.080c-80-8.64-147.328-43.264-201.984-103.936s-81.984-132.096-81.984-214.016v-448h-28.032c-9.984 0-18.496-3.52-25.472-10.496-7.040-7.040-10.496-15.488-10.496-25.536 0-9.984 3.456-18.496 10.496-25.472 7.040-7.040 15.488-10.496 25.472-10.496h276.032v-48c0-20.032 7.040-36.992 20.992-51.008 14.016-14.016 30.976-20.992 51.008-20.992zM760 128h-496v448c0 68.672 24.128 127.168 72.512 175.488 48.32 48.32 106.816 72.512 175.488 72.512s127.168-24.192 175.488-72.512c48.32-48.32 72.512-106.88 72.512-175.488v-448z" />
<glyph unicode="&#xe910;" glyph-name="save-drafts" d="M909.312-64.005v909.312c0.004 0.355 0.006 0.774 0.006 1.194 0 30.974-12.521 59.024-32.778 79.364l0.004-0.004c-19.371 21.021-47.038 34.143-77.77 34.143-0.499 0-0.997-0.003-1.495-0.010l0.075 0.001h-570.709c-0.422 0.006-0.92 0.010-1.419 0.010-30.732 0-58.399-13.122-77.703-34.069l-0.067-0.073c-20.253-20.336-32.774-48.386-32.774-79.36 0-0.42 0.002-0.839 0.007-1.258l-0.001 0.064v-909.312l397.312 170.667zM797.355 106.662l-285.355 125.611-285.355-125.611v738.645h570.709z" />
<glyph unicode="&#xe911;" glyph-name="liked" horiz-adv-x="1115" d="M557.586-64l81.762 71.039q179.631 163.567 250.628 237.361c62.335 60.188 117.243 127.385 163.654 200.507l2.626 4.428c35.852 58.533 57.59 129.126 58.911 204.697l0.005 0.366c0.009 0.883 0.014 1.927 0.014 2.971 0 55.846-14.934 108.203-41.026 153.297l0.787-1.475c-26.596 46.479-64.105 83.988-109.16 109.832l-1.424 0.753c-43.619 25.305-95.976 40.239-151.822 40.239-1.045 0-2.088-0.005-3.131-0.016l0.159 0.001c-50.737-0.013-98.698-11.889-141.263-33.004l1.856 0.833c-44.414-21.18-81.894-50.091-112.203-85.344l-0.374-0.445c-30.683 35.698-68.163 64.609-110.55 84.915l-2.026 0.874c-40.305 20.185-87.8 32.051-138.054 32.171h-0.039c-1.163 0.016-2.536 0.025-3.912 0.025-55.759 0-108.028-14.939-153.024-41.033l1.464 0.784c-46.277-26.851-83.718-64.278-109.819-109.118l-0.765-1.424c-25.695-43.524-40.875-95.904-40.875-151.83 0-1.057 0.005-2.113 0.016-3.167l-0.001 0.161c1.279-75.643 23.524-145.837 61.151-205.337l-0.963 1.63c48.164-77.806 102.669-145.089 164.565-204.759l0.316-0.303q69.682-71.081 251.984-235.877l80.533-73.709z" />
<glyph unicode="&#xe912;" glyph-name="link1" d="M936.843 447.971c53.763 53.752 87.017 128.016 87.017 210.046 0 27.746-3.805 54.604-10.92 80.080l0.498-2.090c-14.673 53.034-42.018 98.484-78.635 134.546l-0.038 0.037c-36.078 36.687-81.536 64.041-132.491 78.177l-2.092 0.495c-23.495 6.695-50.479 10.544-78.362 10.544-81.946 0-156.126-33.247-209.788-86.989l-170.632-170.661 81.189-81.364 170.715 170.745c22.21 22.258 50.207 38.731 81.543 46.97l1.254 0.28c14.48 4.020 31.107 6.33 48.274 6.33s33.794-2.31 49.588-6.637l-1.314 0.307c63.908-16.811 113.237-66.14 129.766-128.788l0.282-1.26c4.020-14.48 6.33-31.107 6.33-48.274s-2.31-33.794-6.637-49.588l0.307 1.314c-8.52-32.59-24.993-60.588-47.247-82.794l-170.631-170.631 81.189-81.364zM682.686 194.019l-81.189 81.335-170.715-170.745c-22.21-22.258-50.207-38.731-81.543-46.97l-1.254-0.28c-14.48-4.020-31.107-6.33-48.274-6.33s-33.794 2.31-49.588 6.637l1.314-0.307c-63.908 16.811-113.237 66.14-129.766 128.788l-0.282 1.26c-4.020 14.48-6.33 31.107-6.33 48.274s2.31 33.794 6.637 49.588l-0.307-1.314c8.52 32.59 24.993 60.588 47.247 82.794l170.631 170.631-81.218 81.335-170.832-170.745c-36.373-35.873-63.303-81.229-76.782-132.061l-0.457-2.025c-6.358-22.797-10.013-48.975-10.013-76.007 0-27.738 3.848-54.577 11.039-80.012l-0.5 2.068c29.598-103.751 109.651-183.804 211.234-212.871l2.167-0.531c23.361-6.71 50.193-10.569 77.927-10.569 27.030 0 53.203 3.665 78.050 10.526l-2.055-0.484c52.85 13.958 98.201 40.884 134.055 77.208l170.659 170.659zM722.388 575.005l-83.354 83.324-337.335-337.335 83.354-83.354z" />
<glyph unicode="&#xe913;" glyph-name="saved" d="M895.123-45.715v876.837c0 29.842-10.533 55.735-31.598 77.678s-46.519 32.914-76.361 32.914h-550.327c-29.842 0-55.296-10.971-76.361-32.914s-31.598-47.835-31.598-77.678v-876.837l383.122 164.571 383.122-164.571zM787.164 118.857l-275.163 121.125-275.163-121.125v712.265h550.327v-712.265z" />
<glyph unicode="&#xe914;" glyph-name="update" d="M512.8 218.912c7.552 0 14.208 2.688 19.904 8.128s8.512 11.904 8.512 19.52v469.568l78.080-78.784c5.888-5.44 12.672-8.128 20.224-8.128 7.616 0 14.080 2.688 19.52 8.128s8.128 12.032 8.128 19.904-2.688 14.464-8.128 19.904l-126.72 126.72c-5.44 5.44-11.968 8.128-19.52 8.128s-14.080-2.688-19.52-8.064l-126.72-126.72c-5.44-5.504-8.128-12.16-8.128-19.968 0-7.872 2.688-14.464 8.128-19.904 5.376-5.44 11.904-8.128 19.52-8.128 7.552 0 14.080 2.688 19.456 8.128l78.848 78.784v-469.568c0-7.616 2.816-14.080 8.512-19.52s12.352-8.128 19.904-8.128zM825.632 84.064c14.080 0 25.984 4.992 35.712 14.976 9.792 10.048 14.656 21.824 14.656 35.392v181.12c0 7.68-2.752 14.080-8.128 19.52-5.44 5.952-12.032 8.96-19.904 8.96s-14.528-2.816-19.904-8.512c-5.44-5.76-8.128-12.352-8.128-19.904v-158.464c0-4.864-1.664-8.96-4.864-12.16-3.264-3.264-7.36-4.928-12.16-4.928h-581.76c-4.928 0-8.96 1.664-12.224 4.928-3.2 3.2-4.864 7.296-4.864 12.16v158.464c0 7.552-2.752 14.208-8.128 19.84-5.44 5.76-12.032 8.576-19.904 8.576s-14.528-2.816-19.904-8.512c-5.44-5.76-8.128-12.352-8.128-19.904v-181.184c0-14.080 4.864-26.048 14.592-35.776 9.792-9.728 21.696-14.656 35.776-14.656h627.2z" />
<glyph unicode="&#xe915;" glyph-name="home" horiz-adv-x="970" d="M333.473-37.051c8.192 0 15.306 3.018 21.288 9s9 13.096 9 21.288l0.97 303.158h241.556v-303.104c0-8.246 3.018-15.36 9-21.342s13.096-9 21.342-9h212.184c8.192 0 15.306 3.018 21.342 9 5.928 5.982 8.947 13.096 8.947 21.288v453.794l40.744-42.577c2.533-3.234 5.713-5.551 9.485-7.114 3.773-1.617 7.923-2.371 12.342-2.371 3.773 0 7.384 0.755 10.887 2.371 3.449 1.563 6.791 3.611 9.917 6.144 5.713 6.306 8.731 13.581 9 21.773 0.323 8.192-2.371 15.468-8.030 21.773l-455.68 476.591c-2.533 3.126-5.713 5.497-9.485 7.060-3.773 1.617-7.869 2.371-12.288 2.371-3.773 0-7.599-0.808-11.372-2.371-3.773-1.617-7.276-3.934-10.456-7.114l-457.566-476.537c-5.659-6.306-8.354-13.581-8.084-21.773 0.323-8.192 3.341-15.468 9.054-21.773 6.306-5.713 13.581-8.354 21.773-8.084 8.192 0.323 15.468 3.341 21.773 9l40.744 42.631v-453.794c0-8.192 2.856-15.306 8.515-21.288 5.713-5.982 12.935-9 21.827-9h211.267zM303.13 23.58h-150.636v478.424c0 1.24-0.162 2.533-0.485 3.773-0.323 1.293-0.485 2.533-0.485 3.773l334.471 348.699 333.447-348.699c-0.647-1.24-0.97-2.479-0.97-3.773v-482.196h-151.552v303.158c0 8.192-3.018 15.306-9 21.342-5.982 5.928-13.096 8.947-21.342 8.947h-302.188c-8.192 0-15.306-2.964-21.288-8.947-6.036-6.036-9-13.15-9-21.342l-0.97-303.158z" />
<glyph unicode="&#xe916;" glyph-name="explore" horiz-adv-x="970" d="M485-37.052c66.937 0 129.94 12.611 189.009 37.888s110.484 59.823 154.408 103.747c43.924 43.87 78.471 95.394 103.747 154.408 25.277 59.069 37.888 122.072 37.888 189.009s-12.611 129.94-37.888 189.009-59.823 110.484-103.747 154.408c-43.87 43.924-95.394 78.471-154.408 103.747-59.123 25.223-122.072 37.888-189.009 37.888s-129.94-12.611-189.009-37.888-110.484-59.823-154.408-103.747c-43.924-43.87-78.471-95.394-103.747-154.408-25.277-59.069-37.888-122.072-37.888-189.009s12.611-129.94 37.888-189.009 59.823-110.484 103.747-154.408c43.87-43.924 95.394-78.471 154.408-103.747 59.069-25.277 122.072-37.888 189.009-37.888zM485 22.609c-58.745 0-113.826 11.21-165.295 33.63s-96.31 52.925-134.521 91.459c-38.265 38.535-68.554 83.537-90.974 135.006s-33.63 106.55-33.63 165.295 11.21 113.826 33.63 165.295c22.42 51.469 52.763 96.31 90.974 134.521 38.211 38.265 82.998 68.554 134.521 90.974 51.469 22.42 106.55 33.63 165.295 33.63s113.826-11.21 165.295-33.63c51.469-22.42 96.31-52.763 134.521-90.974 38.265-38.211 68.554-82.998 90.974-134.521 22.42-51.469 33.63-106.55 33.63-165.295s-11.21-113.826-33.63-165.295c-22.42-51.469-52.763-96.472-90.974-135.006s-82.998-68.985-134.521-91.459c-51.469-22.42-106.55-33.63-165.295-33.63zM274.702 212.103c2.533 0 4.743 0.162 6.629 0.485s3.773 1.078 5.659 2.371l289.954 120.293c2.479 1.293 4.851 2.856 7.006 4.743 2.264 1.886 3.988 4.096 5.282 6.629l143.037 281.331c3.126 5.713 4.258 11.749 3.288 18.055-0.916 6.306-3.288 11.695-7.060 16.115-4.419 4.419-9.809 7.060-16.168 8.084-6.252 0.916-12.288 0.108-17.947-2.425l-296.529-127.892c-2.533-1.24-4.904-3.018-7.114-5.228-2.21-2.156-3.934-4.581-5.228-7.060l-136.408-273.785c-2.533-5.713-3.288-11.533-2.371-17.57 0.97-5.982 3.611-11.21 8.084-15.629 2.479-2.533 5.497-4.581 9-6.144 3.449-1.617 7.060-2.371 10.887-2.371zM554.147 402.513l-84.237 106.119 167.667 65.374-83.375-171.493zM339.107 303.078l82.459 168.583 83.321-104.179-165.78-64.404z" />
<glyph unicode="&#xe917;" glyph-name="lock" horiz-adv-x="819" d="M716.145-64c0.408-0.006 0.89-0.009 1.373-0.009 27.488 0 52.477 10.694 71.036 28.148l-0.054-0.050c18.828 16.387 30.661 40.391 30.661 67.16 0 0.254-0.001 0.507-0.003 0.76v-0.039 489.175c0.002 0.225 0.003 0.492 0.003 0.758 0 26.757-11.834 50.75-30.554 67.031l-0.108 0.092c-18.485 17.398-43.454 28.088-70.92 28.088-0.505 0-1.009-0.004-1.512-0.011l0.076 0.001h-50.278v98.304c0.003 0.451 0.005 0.984 0.005 1.517 0 44.913-12.783 86.84-34.908 122.342l0.569-0.979c-23.041 37.384-54.523 67.509-91.912 88.296l-1.272 0.649c-37.194 20.626-81.561 32.767-128.763 32.767s-91.569-12.14-130.148-33.469l1.385 0.702c-38.661-21.435-70.143-51.56-92.568-87.872l-0.616-1.072c-21.557-34.481-34.341-76.366-34.341-121.237 0-0.578 0.002-1.155 0.006-1.732l-0.001 0.088v-98.304h-50.278c-0.442 0.007-0.963 0.011-1.485 0.011-27.452 0-52.406-10.696-70.922-28.147l0.052 0.048c-18.828-16.373-30.662-40.366-30.662-67.123 0-0.267 0.001-0.533 0.004-0.799v0.041-489.175c-0.003-0.249-0.004-0.543-0.004-0.837 0-26.733 11.836-50.701 30.553-66.951l0.109-0.093c18.464-17.403 43.419-28.099 70.871-28.099 0.522 0 1.043 0.004 1.564 0.012l-0.079-0.001zM567.798 617.103h-316.416v98.304c0.004 27.757 8.014 53.642 21.846 75.473l-0.342-0.578c14.395 23.366 34.071 42.193 57.44 55.177l0.795 0.405c22.597 12.884 49.654 20.48 78.484 20.48s55.888-7.596 79.278-20.896l-0.794 0.415c24.159-13.41 43.837-32.236 57.87-54.923l0.386-0.67c13.49-21.253 21.5-47.139 21.504-74.895v-0.001zM409.6 178.237c-0.353-0.004-0.77-0.007-1.187-0.007-27.749 0-52.887 11.18-71.156 29.28l0.008-0.008c-18.862 17.1-30.66 41.696-30.66 69.048s11.797 51.948 30.581 68.979l0.078 0.070c18.704 18.101 44.224 29.256 72.351 29.256s53.647-11.156 72.379-29.284l-0.028 0.027c18.862-17.1 30.66-41.696 30.66-69.048s-11.797-51.948-30.581-68.979l-0.078-0.070c-18.302-18.094-43.476-29.272-71.261-29.272-0.389 0-0.777 0.002-1.164 0.007l0.059-0.001z" />
<glyph unicode="&#xe918;" glyph-name="delete-fill" d="M170.667 49.779c0-62.864 50.915-113.779 113.779-113.779h455.112c62.861 0 113.776 50.915 113.776 113.779v682.667h-682.667v-682.667zM711.112 903.112l-56.891 56.888h-284.443l-56.891-56.888h-199.109v-113.779h796.443v113.779z" />
<glyph unicode="&#xe919;" glyph-name="public" d="M512-63.99c0.979-0.007 2.135-0.011 3.293-0.011 94.582 0 183.074 26.078 258.676 71.435l-2.283-1.27c76.435 43.99 138.174 105.743 180.9 179.842l1.249 2.348c44.087 73.319 70.165 161.809 70.165 256.39 0 1.159-0.004 2.317-0.012 3.474l0.001-0.178c0.007 0.967 0.011 2.111 0.011 3.255 0 94.581-26.078 183.072-71.435 258.673l1.27-2.283c-43.985 76.414-105.723 138.139-179.802 180.86l-2.348 1.248c-73.32 44.087-161.811 70.165-256.393 70.165-1.158 0-2.315-0.004-3.471-0.012l0.177 0.001c-187.442-0.082-351.337-100.818-440.577-251.087l-1.299-2.363c-44.090-74.001-70.153-163.186-70.153-258.458s26.063-184.457 71.449-260.813l-1.296 2.355c44.194-76.673 105.885-138.757 179.862-182.157l2.328-1.262c73.32-44.087 161.811-70.165 256.393-70.165 1.158 0 2.315 0.004 3.471 0.012l-0.177-0.001zM814.756 171.080c-7.398 21.438-20.661 39.268-37.868 52.102l-0.286 0.204c-16.347 12.644-37.136 20.267-59.706 20.267-0.221 0-0.442-0.001-0.662-0.002h-50.398v153.887c0 0.012 0 0.027 0 0.041 0 27.847-22.575 50.422-50.422 50.422-0.014 0-0.029 0-0.043 0h-307.679v103.424h100.925c0.347-0.008 0.756-0.013 1.165-0.013 14.153 0 26.99 5.638 36.386 14.79l-0.011-0.011c9.46 8.741 15.364 21.212 15.364 35.061 0 0.22-0.001 0.439-0.004 0.658v-0.033 103.424h100.946c0.303-0.003 0.66-0.005 1.018-0.005 27.939 0 53.243 11.288 71.598 29.552l-0.004-0.004c18.921 17.5 30.728 42.455 30.728 70.167 0 0.427-0.003 0.854-0.008 1.28l0.001-0.065v22.077c51.973-20.733 96.383-50.126 133.586-86.809l-0.046 0.046c37.98-37.151 68.739-81.506 90.091-130.878l1.025-2.662c20.617-47.173 32.614-102.143 32.614-159.914 0-107.032-41.177-204.446-108.554-277.265l0.246 0.27zM461.537 41.861c-68.955 8.466-130.844 33.263-183.41 70.384l1.261-0.845c-53.725 37.138-97.275 85.204-128.154 141.234l-1.074 2.126c-30.989 55.529-49.235 121.822-49.235 192.376 0 0.3 0 0.6 0.001 0.899v-0.047c0.155 32.455 4.631 63.8 12.879 93.576l-0.591-2.501 244.941-244.91v-50.504c0.923-56.745 46.679-102.501 103.337-103.423l0.087-0.001z" />
<glyph unicode="&#xe91a;" glyph-name="saved-drafts" d="M1024-64v909.312c-0.527 33.078-16.829 62.24-41.695 80.357l-0.289 0.201c-26.44 21.298-60.434 34.186-97.439 34.186-1.471 0-2.937-0.020-4.398-0.061l0.215 0.005h-731.935c-1.24 0.035-2.699 0.056-4.163 0.056-37.004 0-70.998-12.888-97.739-34.42l0.301 0.234c-25.155-18.318-41.457-47.481-41.983-80.476l-0.001-0.083v-909.312l509.563 170.67 509.563-170.67zM880.394 106.67l-365.957 125.604-365.978-125.604v738.642h731.935z" />
<glyph unicode="&#xe91b;" glyph-name="back" d="M512-34.845l85.293 85.293-336.836 338.281h734.389v118.543h-734.389l336.836 338.281-85.293 85.293-482.846-482.846z" />
<glyph unicode="&#xe91c;" glyph-name="share-sm" horiz-adv-x="1229" d="M76.8 25.6c74.752 106.496 160.973 183.91 259.072 232.448 97.894 48.435 220.672 72.704 368.128 72.704v-246.272l448 411.648-448 425.472v-237.978c-341.606-48.538-550.707-267.878-627.2-658.022z" />
<glyph unicode="&#xe91d;" glyph-name="comment" horiz-adv-x="1229" d="M166.4 25.6l5.632 2.765 139.981 61.645 11.264 5.632c9.216 3.686 14.848 5.53 16.691 5.53l11.264 3.072c7.475 1.741 14.95 2.56 22.323 2.56 7.475 0 16.794-1.843 28.058-5.632h5.632c59.699-20.48 129.638-30.72 209.92-30.72 149.402 0 275.866 40.55 379.392 121.754 103.629 81.203 155.443 180.634 155.443 298.189 0 119.501-52.736 221.184-158.208 305.152-105.472 84.070-231.936 126.157-379.392 126.157s-274.432-41.984-380.826-125.952c-104.448-84.070-156.774-185.958-156.774-305.254 0-86.016 27.955-164.352 83.968-235.315l8.499-8.499 4.608-9.523c1.229-3.277 2.15-6.758 2.765-10.24l1.024-10.957c0-1.843-15.974-55.91-47.616-162.406-3.789-14.848 2.765-24.269 19.456-27.955h16.896z" />
<glyph unicode="&#xe91e;" glyph-name="add-photo" horiz-adv-x="1100" d="M237.796 552.296v142.222h142.222v95.573h-142.222v142.222h-95.573v-142.222h-142.222v-95.573h142.222v-142.222h95.573zM995.556-63.241c25.79 0 48.166 9.102 67.129 27.307s28.444 40.201 28.444 65.991v568.889c0 25.79-9.481 48.166-28.444 67.129s-41.339 28.444-67.129 28.444h-151.324l-86.471 95.573h-331.093v-142.222h-142.222v-142.222h-142.222v-475.591c0-25.79 9.481-47.787 28.444-65.991s41.339-27.307 67.129-27.307h757.76zM615.538 78.981c-43.236 0-82.868 10.43-118.898 31.289s-64.474 49.304-85.333 85.333-31.289 75.662-31.289 118.898c0 43.236 10.43 83.058 31.289 119.467s49.493 65.233 85.902 86.471c36.409 21.239 76.041 31.858 118.898 31.858s82.489-10.619 118.898-31.858c36.409-21.239 65.233-50.062 86.471-86.471s31.858-76.041 31.858-118.898-10.619-82.489-31.858-118.898c-21.239-36.409-50.062-65.043-86.471-85.902s-76.231-31.289-119.467-31.289zM615.538 163.176c27.307 0 52.907 6.827 76.8 20.48s42.667 32.047 56.32 55.182c13.653 23.135 20.48 48.356 20.48 75.662s-7.016 52.717-21.049 76.231c-14.033 23.514-32.806 42.287-56.32 56.32s-48.924 21.049-76.231 21.049c-27.307 0-52.527-6.827-75.662-20.48s-41.529-32.427-55.182-56.32c-13.653-23.893-20.48-49.493-20.48-76.8s6.827-52.527 20.48-75.662c13.653-23.135 32.047-41.529 55.182-55.182s48.356-20.48 75.662-20.48z" />
<glyph unicode="&#xe91f;" glyph-name="report" horiz-adv-x="1055" d="M519.376-7.906c0.591-0.003 1.291-0.004 1.991-0.004 188.431 0 350.398 113.305 421.487 275.5l1.155 2.956c22.844 52.451 36.134 113.554 36.134 177.763s-13.291 125.313-37.271 180.712l1.136-2.949c-72.244 165.151-234.211 278.456-422.642 278.456-0.68 0-1.36-0.001-2.040-0.004h0.105c-251.96 0-456.214-204.254-456.214-456.214s204.254-456.214 456.214-456.214v0zM831.204 195.492l-567.505 561.671c14.425 11.836 30.506 22.965 47.468 32.739l1.727 0.918c18.062 11.125 38.969 21.431 60.851 29.761l2.592 0.866c42.389 16.374 91.439 25.859 142.704 25.859 0.079 0 0.157 0 0.236 0h-0.012c0.781 0.006 1.704 0.009 2.627 0.009 55.807 0 108.894-11.642 156.966-32.63l-2.53 0.984c96.413-41.341 171.881-116.136 213.093-209.45l1.019-2.586c20.175-45.041 31.926-97.618 31.926-152.939 0-0.898-0.003-1.796-0.009-2.693l0.001 0.138c0-0.104 0-0.227 0-0.35 0-25.662-2.45-50.752-7.128-75.049l0.397 2.477c-5.033-26.319-11.726-49.341-20.297-71.426l0.945 2.767c-9.314-24.21-19.742-44.903-31.928-64.383l0.908 1.557c-10.607-18.285-21.731-34.056-34.082-48.762l0.426 0.521zM519.264 48.188c-0.781-0.006-1.704-0.009-2.627-0.009-55.807 0-108.894 11.642-156.966 32.63l2.53-0.984c-96.482 41.761-171.942 116.911-213.090 210.552l-1.021 2.607c-20.176 44.96-31.928 97.45-31.928 152.685 0 0.987 0.004 1.974 0.011 2.959l-0.001-0.151c0 0.104 0 0.227 0 0.35 0 25.662 2.45 50.752 7.128 75.049l-0.397-2.477c5.094 26.348 11.979 49.453 20.838 71.553l-0.925-2.613c9.684 24.512 20.117 45.299 32.127 65.020l-1.051-1.857 35.732 49.924-15.314-16.828 565.598-554.828c-9.59-9.967-20.467-18.594-32.388-25.641l-0.708-0.387c-38.413-23.58-83.248-41.267-131.114-50.423l-2.503-0.398c-22.089-4.246-47.495-6.675-73.468-6.675-0.064 0-0.129 0-0.193 0h0.009zM517.245-63.776c0.601-0.003 1.312-0.004 2.024-0.004 211.595 0 393.495 127.137 473.478 309.188l1.3 3.317c25.666 58.859 40.599 127.435 40.599 199.499s-14.933 140.64-41.874 202.802l1.275-3.303c-81.282 185.368-263.183 312.505-474.777 312.505-0.711 0-1.423-0.001-2.133-0.004h0.11c-282.77 0-512-229.23-512-512s229.23-512 512-512v0zM859.756 154.992l-638.464 631.845c18.841 15.584 39.772 30.57 61.718 44.065l2.398 1.371c20.286 12.527 43.76 24.134 68.331 33.522l2.908 0.976c47.593 18.363 102.662 29.001 160.215 29.001 0.115 0 0.229 0 0.344 0h-0.018c0.854 0.006 1.864 0.009 2.874 0.009 62.687 0 122.323-13.066 176.332-36.623l-2.846 1.106c108.24-46.385 192.976-130.32 239.275-235.049l1.145-2.902c22.691-50.581 35.909-109.632 35.909-171.77 0-0.963-0.003-1.925-0.010-2.887l0.001 0.148c0-0.098 0-0.214 0-0.33 0-28.824-2.756-57.004-8.019-84.291l0.446 2.779c-5.662-29.545-13.189-55.387-22.826-80.175l1.061 3.101c-10.459-27.17-22.169-50.394-35.853-72.255l1.019 1.745c-14.915-24.001-30.058-44.713-46.581-64.218l0.64 0.775zM517.301-1.006c-0.861-0.006-1.879-0.010-2.898-0.010-62.66 0-122.268 13.066-176.248 36.622l2.842-1.105c-108.279 46.799-192.996 131.043-239.271 236.040l-1.149 2.921c-22.692 50.486-35.911 109.434-35.911 171.47 0 1.069 0.004 2.136 0.012 3.203l-0.001-0.164c0 0.098 0 0.214 0 0.33 0 28.824 2.756 57.004 8.019 84.291l-0.446-2.779c5.625 29.645 13.29 55.675 23.188 80.575l-1.031-2.941c10.891 27.513 22.623 50.847 36.125 72.982l-1.178-2.079c14.557 23.918 29.884 44.636 46.859 63.863l-0.413-0.477 638.577-631.621c-18.951-16.386-39.897-31.728-62.036-45.315l-2.080-1.187c-43.139-26.466-93.489-46.32-147.239-56.6l-2.813-0.448c-24.851-4.781-53.432-7.517-82.652-7.517-0.011 0-0.021 0-0.032 0h0.001z" />
<glyph unicode="&#xe920;" glyph-name="search-new" d="M1015.040-8.96l-298.048 317.952c23.921 32.107 42.989 69.538 55.149 109.96l0.659 2.552c15.766 40.478 24.902 87.334 24.902 136.325 0 0.764-0.002 1.527-0.007 2.289l0.001-0.118c0.005 0.712 0.007 1.554 0.007 2.396 0 55.507-11.539 108.318-32.348 156.167l0.981-2.531c-21.33 49.336-50.27 91.463-85.82 126.972l-0.004 0.004c-35.655 35.282-77.796 64.094-124.462 84.476l-2.642 1.028c-44.95 19.905-97.377 31.493-152.51 31.493-0.698 0-1.396-0.002-2.093-0.006h0.108c-0.747 0.005-1.63 0.008-2.514 0.008-55.303 0-107.9-11.588-155.494-32.47l2.488 0.973c-49.358-21.397-91.543-50.211-127.27-85.541l0.038 0.037c-71.777-71.86-116.167-171.089-116.167-280.686 0-0.817 0.002-1.632 0.007-2.448l-0.001 0.125c-0.005-0.737-0.008-1.608-0.008-2.48 0-109.547 44.392-208.727 116.169-280.529l-0.002 0.002c35.665-35.301 77.83-64.116 124.527-84.478l2.641-1.026c45.106-19.908 97.703-31.497 153.007-31.497 0.906 0 1.812 0.003 2.716 0.009l-0.139-0.001c0.684-0.004 1.492-0.007 2.301-0.007 50.095 0 97.961 9.54 141.882 26.902l-2.615-0.911c46.036 18.006 85.677 42.326 120.159 72.409l-0.479-0.409 309.12-312c5.73-6.146 13.874-9.977 22.912-9.977s17.182 3.831 22.895 9.959l0.017 0.019c5.497 5.837 8.876 13.724 8.876 22.4s-3.378 16.563-8.891 22.417l0.015-0.017zM398.912 222.912c-0.505-0.003-1.103-0.004-1.701-0.004-46.788 0-91.282 9.821-131.533 27.515l2.099-0.823c-41.484 17.923-76.889 42.315-106.669 72.301l-0.019 0.019c-29.531 30.033-53.696 65.455-70.868 104.638l-0.876 2.242c-16.713 37.943-26.441 82.182-26.441 128.692 0 0.859 0.003 1.718 0.010 2.575l-0.001-0.132c-0.006 0.763-0.010 1.666-0.010 2.57 0 46.511 9.728 90.75 27.261 130.793l-0.819-2.099c18.044 41.382 42.208 76.762 71.787 106.796l-0.043-0.044c29.794 30.054 65.199 54.487 104.522 71.608l2.166 0.84c38.089 16.792 82.499 26.566 129.193 26.566 0.683 0 1.366-0.002 2.048-0.006l-0.105 0.001c0.474 0.003 1.035 0.004 1.596 0.004 46.462 0 90.641-9.775 130.592-27.38l-2.077 0.816c41.502-17.926 76.913-42.365 106.66-72.42l0.028-0.028c29.564-29.985 53.75-65.366 70.934-104.518l0.874-2.234c16.713-37.943 26.44-82.18 26.44-128.69 0-0.815-0.003-1.629-0.009-2.443l0.001 0.125c0.007-0.801 0.011-1.748 0.011-2.695 0-46.512-9.729-90.752-27.262-130.796l0.819 2.099c-18.053-41.432-42.241-76.856-71.851-106.924l0.043 0.044c-29.781-30.035-65.192-54.432-104.526-71.485l-2.162-0.835c-37.84-16.75-81.972-26.501-128.382-26.501-0.608 0-1.216 0.002-1.823 0.005h0.094z" />
<glyph unicode="&#xe921;" glyph-name="settings" d="M512-63.058c28.7 0.203 56.67 2.65 83.939 7.172l-3.094-0.424 26.952 4.454 28.017 81.807c25.469 8.866 46.589 17.98 66.945 28.377l-2.986-1.384 77.609-39.281 22.415 16.804c22.962 16.382 43.137 33.733 61.63 52.729l0.096 0.099c19.084 18.581 36.41 38.764 51.833 60.398l0.914 1.349 15.811 22.395-38.226 77.373c9.189 17.819 18.303 39.316 25.902 61.516l1.050 3.529 81.92 26.921 4.526 26.921c4.071 24.124 6.52 52.063 6.757 80.529l0.002 0.234c-0.239 28.7-2.687 56.639-7.184 83.887l0.426-3.124-4.526 26.921-81.92 27.996c-8.65 25.76-17.764 47.281-28.269 67.977l1.317-2.861 38.154 77.394-15.739 21.32c-32.263 44.786-70.099 82.982-113.062 114.618l-1.411 0.991-22.528 15.647-77.414-39.291c-17.86 9.208-39.38 18.313-61.609 25.886l-3.497 1.035-26.962 81.869-26.952 4.526c-24.173 4.098-52.144 6.545-80.647 6.747l-0.198 0.001c-28.693-0.194-56.664-2.641-83.93-7.172l3.085 0.423-26.952-4.454-28.006-81.838c-25.123-8.437-46.307-17.574-66.582-28.208l2.48 1.185-77.414 39.301-22.467-16.773c-44.268-32.425-82.096-70.231-113.531-113.026l-16.753-23.913 38.226-77.394c-9.037-17.392-18.139-38.494-25.831-60.261l-1.12-3.637-81.981-28.068-4.526-26.921c-4.053-24.142-6.477-52.086-6.686-80.557l-0.001-0.206c0.171-28.646 2.596-56.593 7.107-83.835l-0.42 3.072 4.526-26.921 81.92-27.996c8.412-25.048 17.55-46.187 28.194-66.41l-1.171 2.441-38.226-77.394 15.811-22.467c16.756-22.846 34.033-43 52.699-61.772l-0.024 0.024c18.81-18.472 38.972-35.747 60.257-51.597l1.542-1.098 22.456-15.667 77.466 38.052c17.331-8.921 38.477-17.988 60.269-25.69l3.762-1.159 28.027-81.848 27.023-4.526c24.159-4.104 52.108-6.55 80.592-6.747l0.191-0.001zM512 17.705c-16.779 0.134-33.142 1.358-49.178 3.604l1.962-0.225-12.288 39.27-12.36 34.744-34.816 11.203c-23.189 7.513-42.871 15.878-61.653 25.725l2.148-1.026-32.553 16.876-33.7-16.876-37.007-17.951c-12.826 9.83-24.201 20.136-34.676 31.296l-0.14 0.151c-11.334 10.581-21.638 21.935-30.953 34.087l-0.484 0.658 34.816 69.571-16.814 32.522c-9.032 16.75-17.411 36.421-24.009 56.892l-0.711 2.551-11.274 35.901-74.086 24.699c-2.151 14.035-3.379 30.227-3.379 46.706 0 0.14 0 0.28 0 0.42v-0.022c0.091 16.697 1.317 33.023 3.602 49.008l-0.223-1.904 74.015 24.699 11.264 34.744c6.878 22.83 15.277 42.552 25.527 61.109l-0.807-1.594 16.814 33.597-16.814 32.522-17.92 37.038c19.639 24.831 41.397 46.57 65.426 65.561l0.827 0.63 69.56-34.744 33.792 16.804c17.016 9.719 36.718 18.129 57.419 24.203l1.973 0.496 34.816 11.203 11.213 34.744 13.435 40.417c17.244 1.434 32.983 2.222 47.217 2.222q22.415 0 47.104-2.222l24.771-75.172 34.816-10.056c23.872-7.799 43.931-16.185 63.184-25.933l-2.532 1.163 32.532-17.951 69.632 35.901c24.87-20.381 46.931-42.423 66.672-66.444l0.656-0.823-35.932-69.571 16.886-32.522c9.241-16.702 17.959-36.34 24.992-56.762l0.803-2.681 10.056-35.901 34.816-11.203 40.387-13.496c1.62-10.548 2.546-22.715 2.546-35.099 0-3.815-0.088-7.61-0.262-11.382l0.020 0.534v-1.147c0-14.213-0.717-29.942-2.304-47.104l-40.346-12.339-34.816-12.349-11.264-35.901c-6.698-22.478-14.703-41.825-24.406-60.134l0.854 1.766-17.961-32.522 35.932-70.656c-10.496-12.708-20.91-24.34-31.406-34.744v-1.147c-10.876-10.735-22.602-20.674-35.045-29.685l-0.877-0.605-69.704 34.816-32.492-16.865c-16.754-8.614-36.807-16.978-57.551-23.822l-3.070-0.877-34.816-11.203-11.264-34.744-13.435-39.27c-14.136-2.127-30.466-3.355-47.078-3.379h-0.026zM512 253.225c107.844 0.006 195.271 87.408 195.318 195.242v0.004c-0.070 107.82-87.489 195.199-195.317 195.205h-0.001c-107.841-0.023-195.27-87.381-195.41-195.192v-0.013c0.14-107.824 87.569-195.182 195.408-195.205h0.002zM512 333.988c-63.135 0.295-114.246 51.359-114.616 114.448v0.035c0.395 63.289 51.792 114.442 115.136 114.442 0.019 0 0.037 0 0.056 0h-0.003c0.589 0.011 1.284 0.018 1.98 0.018 30.987 0 58.958-12.911 78.827-33.648l0.037-0.039c20.435-20.67 33.058-49.101 33.058-80.48 0-31.665-12.854-60.327-33.629-81.054l-0.002-0.002c-20.081-20.755-48.187-33.639-79.302-33.639-0.542 0-1.084 0.004-1.624 0.012l0.082-0.001z" />
<glyph unicode="&#xe922;" glyph-name="transaction" d="M41.247 368.783c0.212-0.004 0.461-0.006 0.711-0.006 11.208 0 21.334 4.634 28.566 12.090l0.010 0.010c7.429 7.233 12.038 17.332 12.038 28.507 0 0.238-0.002 0.476-0.006 0.713v-0.036c-0.020 1.18-0.031 2.572-0.031 3.967 0 70.592 29.219 134.359 76.222 179.868l0.067 0.065c45.614 47.030 109.394 76.218 179.99 76.218 1.407 0 2.812-0.012 4.214-0.035l-0.211 0.003h400.282l-136.52-136.376c-7.786-7.444-12.627-17.914-12.627-29.514 0-0.089 0-0.178 0.001-0.268v0.014c0-0.040 0-0.087 0-0.134 0-22.684 18.389-41.073 41.073-41.073 0.087 0 0.173 0 0.259 0.001h-0.013c0.253-0.006 0.551-0.010 0.851-0.010 11.074 0 21.011 4.869 27.786 12.584l0.036 0.042 205.24 203.827c7.78 7.349 12.624 17.737 12.624 29.256s-4.843 21.906-12.604 29.238l-0.019 0.018-211.005 210.811c-7.004 7.075-16.717 11.456-27.454 11.456-0.41 0-0.819-0.006-1.226-0.019l0.060 0.001c-0.073 0-0.16 0.001-0.246 0.001-22.684 0-41.073-18.389-41.073-41.073 0-0.047 0-0.094 0-0.141v0.007c-0.010-0.335-0.016-0.729-0.016-1.124 0-10.768 4.383-20.512 11.463-27.546l137.607-137.484h-394.476c-1.582 0.027-3.448 0.043-5.319 0.043-92.993 0-177.018-38.394-237.089-100.194l-0.076-0.078c-61.935-60.042-100.375-144.010-100.375-236.957 0-1.878 0.016-3.753 0.047-5.624l-0.004 0.282c-0.006-0.251-0.009-0.547-0.009-0.843 0-11.123 4.613-21.169 12.029-28.33l0.012-0.011c7.22-7.495 17.344-12.15 28.555-12.15 0.232 0 0.464 0.002 0.695 0.006h-0.035zM393.308-63.099c0.052 0 0.113 0 0.174 0 22.684 0 41.073 18.389 41.073 41.073 0 0.047 0 0.094 0 0.141v-0.007c0.010 0.335 0.016 0.729 0.016 1.124 0 10.768-4.383 20.512-11.463 27.546l-137.617 137.494h394.486c1.585-0.027 3.456-0.043 5.329-0.043 93.012 0 177.056 38.393 237.151 100.195l0.075 0.077c61.948 60.087 100.394 144.1 100.394 237.092 0 1.845-0.015 3.687-0.045 5.525l0.004-0.277c-1.058 22.333-18.91 40.171-41.151 41.202l-0.096 0.004c-0.073 0-0.16 0.001-0.246 0.001-22.684 0-41.073-18.389-41.073-41.073 0-0.047 0-0.094 0-0.141v0.007c0.020-1.18 0.031-2.572 0.031-3.967 0-70.592-29.219-134.359-76.222-179.868l-0.067-0.065c-45.653-47.031-109.465-76.217-180.093-76.217-1.396 0-2.789 0.011-4.18 0.034l0.209-0.003h-400.23l137.615 137.482c7.080 7.028 11.463 16.765 11.463 27.526 0 0.378-0.005 0.755-0.016 1.13l0.001-0.055c0.001 0.095 0.001 0.207 0.001 0.319 0 22.622-18.338 40.96-40.96 40.96-0.119 0-0.238-0.001-0.357-0.002h0.018c-0.267 0.007-0.581 0.011-0.896 0.011-11.060 0-20.983-4.871-27.739-12.584l-0.036-0.042-205.251-203.899c-7.096-7.647-11.45-17.925-11.45-29.22s4.354-21.573 11.475-29.247l-0.025 0.027 211.005-210.811c7.057-7.075 16.815-11.453 27.596-11.453 0.378 0 0.755 0.005 1.131 0.016l-0.055-0.001z" />
<glyph unicode="&#xe923;" glyph-name="delpost" horiz-adv-x="1007" d="M691.856-64c35.121 0.278 63.845 27.296 66.826 61.681l0.018 0.253 74.838 738.496h44.059c17.642 0 31.943 14.301 31.943 31.943s-14.301 31.943-31.943 31.943v0h-224.639v86.86c0.007 0.376 0.012 0.82 0.012 1.264 0 19.95-8.438 37.929-21.939 50.564l-0.039 0.036c-13.122 12.96-31.164 20.965-51.075 20.965-0.3 0-0.599-0.002-0.897-0.005h-171.534c-0.231 0.003-0.503 0.004-0.776 0.004-19.935 0-38.001-8.003-51.16-20.972l0.009 0.009c-13.508-12.667-21.923-30.625-21.923-50.548 0-0.573 0.007-1.145 0.021-1.715l-0.002 0.085v-86.86h-224.639c-17.004-0.779-30.495-14.754-30.495-31.88s13.491-31.101 30.425-31.877l0.070-0.003h44.059l73.705-738.307c1.861-17.603 10.135-32.985 22.407-44.003l0.064-0.056c11.617-11.068 27.378-17.879 44.73-17.879 0.229 0 0.458 0.001 0.686 0.004h397.128zM589.072 800.317h-191.595v86.86c0.171 5.409 4.53 9.747 9.932 9.882h171.718c5.436-0.137 9.808-4.508 9.945-9.932v-86.873zM691.856-0.114h-397.226c-1.973 0.568-3.49 2.106-4.019 4.051l-0.009 0.041-72.824 732.391h550.992l-72.887-732.391c0.004-0.066 0.007-0.143 0.007-0.22 0-1.186-0.596-2.233-1.506-2.857l-0.012-0.008c-0.708-0.564-1.595-0.932-2.565-1.006l-0.016-0.001z" />
<glyph unicode="&#xe924;" glyph-name="organisations" d="M951.91 67.533c0.091 0 0.2-0.001 0.308-0.001 39.588 0 71.68 32.092 71.68 71.68 0 0.108 0 0.216-0.001 0.325v-0.017 624.026c0 0.091 0.001 0.2 0.001 0.308 0 39.588-32.092 71.68-71.68 71.68-0.108 0-0.216 0-0.325-0.001h-879.906c-0.091 0-0.2 0.001-0.308 0.001-39.588 0-71.68-32.092-71.68-71.68 0-0.108 0-0.216 0.001-0.325v0.017-624.026c0-0.091-0.001-0.2-0.001-0.308 0-39.588 32.092-71.68 71.68-71.68 0.108 0 0.216 0 0.325 0.001h-0.017zM951.91 139.52h-879.923v624.026h879.923zM376.013 195.533c0.091 0 0.2-0.001 0.308-0.001 39.588 0 71.68 32.092 71.68 71.68 0 0.108 0 0.216-0.001 0.325v-0.017 88.013c0.002 0.299 0.003 0.652 0.003 1.005 0 27.493-7.038 53.342-19.41 75.844l0.412-0.817c-12.602 23.139-29.868 42.255-50.66 56.633l-0.54 0.353c23.557 22.317 38.216 53.822 38.216 88.75 0 0.785-0.007 1.568-0.022 2.349l0.002-0.117c0 70.692-57.308 128-128 128v0c-70.692 0-128-57.308-128-128v0c-0.016-0.744-0.026-1.62-0.026-2.499 0-34.814 14.557-66.228 37.915-88.488l0.049-0.047c-21.352-14.709-38.624-33.83-50.778-56.14l-0.422-0.845c-11.961-21.61-19-47.381-19-74.796 0-0.434 0.002-0.868 0.005-1.302v0.066-88.013c0-0.077 0-0.167 0-0.258 0-39.588 32.092-71.68 71.68-71.68 0.198 0 0.396 0.001 0.594 0.002h175.996zM859.75 579.533c19.879 0 35.994 16.115 35.994 35.994s-16.115 35.994-35.994 35.994h-311.757c-19.879 0-35.994-16.115-35.994-35.994s16.115-35.994 35.994-35.994h311.757zM288 523.52c-30.865 0.173-55.84 25.148-56.013 55.996v0.017c-0.007 0.31-0.010 0.676-0.010 1.042 0 14.876 6.118 28.323 15.975 37.963l0.010 0.010c10.018 10.452 24.093 16.948 39.685 16.948 0.106 0 0.212 0 0.318-0.001h-0.016c30.935 0 56.013-25.078 56.013-56.013s-25.078-56.013-56.013-56.013v0zM795.955 415.488c19.893 0 36.019 16.126 36.019 36.019s-16.126 36.019-36.019 36.019v0h-247.962c-19.893 0-36.019-16.126-36.019-36.019s16.126-36.019 36.019-36.019v0h248.013zM370.995 267.52h-166.042c-0.237-0.045-0.509-0.071-0.788-0.071-2.432 0-4.403 1.971-4.403 4.403 0 0.279 0.026 0.551 0.075 0.815l-0.004-0.027v82.893c0.402 48.445 39.567 87.611 87.974 88.013h0.038c48.444-0.43 87.605-39.572 88.064-87.969v-83.244c0.045-0.237 0.071-0.509 0.071-0.788 0-2.432-1.971-4.403-4.403-4.403-0.279 0-0.551 0.026-0.815 0.075l0.027-0.004zM731.955 251.546c19.835 0.058 35.891 16.151 35.891 35.994 0 19.879-16.115 35.994-35.994 35.994-0.036 0-0.072 0-0.108 0h-183.751c-19.879 0-35.994-16.115-35.994-35.994s16.115-35.994 35.994-35.994v0z" />
<glyph unicode="&#xe925;" glyph-name="dark-close" d="M885.321-42.203l94.939 94.939-373.321 373.321 373.321 373.321-94.939 94.939-373.321-373.321-373.321 373.321-94.939-94.939 373.321-373.321-373.321-373.321 94.939-94.939 373.321 373.321z" />
<glyph unicode="&#xe926;" glyph-name="trash" d="M816.598 762.976l-65.286-743.95h-478.624l-65.272 743.95-82.708-7.25 66.464-757.442c3.498-34.912 33.79-62.284 68.98-62.284h503.698c35.176 0 65.48 27.358 69.036 62.782l66.422 756.944-82.71 7.25zM664.216 960h-304.432c-38.152 0-69.19-31.038-69.19-69.19v-131.46h83.026v117.624h276.756v-117.622h83.026v131.46c0.004 38.15-31.034 69.188-69.186 69.188zM954.81 800.864h-885.62c-22.93 0-41.514-18.584-41.514-41.514s18.584-41.514 41.514-41.514h885.622c22.93 0 41.514 18.584 41.514 41.514s-18.586 41.514-41.516 41.514z" />
<glyph unicode="&#xe927;" glyph-name="search-thick" d="M1011.488 8.835l-291.197 291.197c56.405 69.673 90.367 158.206 90.367 254.632 0 223.486-181.844 405.33-405.33 405.33s-405.328-181.842-405.328-405.328 181.844-405.33 405.33-405.33c96.425 0 184.958 33.962 254.632 90.367l291.197-291.197c8.32-8.32 19.242-12.502 30.166-12.502s21.846 4.182 30.166 12.502c16.682 16.682 16.682 43.648-0.002 60.329zM405.33 234.669c-176.468 0-319.997 143.529-319.997 319.997s143.529 319.997 319.997 319.997 319.997-143.529 319.997-319.997-143.531-319.997-319.997-319.997z" />
<glyph unicode="&#xe928;" glyph-name="school-placeholder" d="M509.995 69.333c10.351-0.639 22.449-1.003 34.633-1.003 63.489 0 124.669 9.884 182.086 28.197l-4.238-1.167c25.578 9.781 47.163 20.196 67.736 32.157l-2.2-1.181c3.892 2.599 6.957 6.156 8.896 10.342l0.064 0.154c1.901 3.949 3.017 8.584 3.029 13.478v278.063c-0.014 2.3-0.199 4.545-0.545 6.737l0.033-0.252c-0.345 2.465-1.221 4.675-2.51 6.583l0.035-0.055 130.005 68.011v-224c-9.395-6.092-17.118-13.964-22.858-23.196l-0.182-0.314c-5.628-9.024-8.965-19.981-8.965-31.717 0-0.28 0.002-0.559 0.006-0.837v0.042c-0.002-0.207-0.004-0.452-0.004-0.698 0-17.329 7.066-33.007 18.474-44.311l0.005-0.005c11.606-11.731 27.707-18.996 45.504-18.996s33.898 7.265 45.498 18.99l0.006 0.006c11.437 11.3 18.521 26.984 18.521 44.322 0 0.243-0.001 0.486-0.004 0.728v-0.037c0.003 0.237 0.005 0.518 0.005 0.798 0 11.741-3.354 22.698-9.156 31.967l0.148-0.253c-5.926 9.529-13.648 17.386-22.753 23.292l-0.287 0.175v258.005l16.043 8.021c5.334 2.685 9.613 6.799 12.426 11.842l0.075 0.147c2.839 4.637 4.521 10.25 4.521 16.256s-1.681 11.619-4.599 16.394l0.078-0.138c-3.004 4.988-6.855 9.153-11.397 12.417l-0.123 0.084-482.005 256.896c-4.464 2.523-9.802 4.010-15.488 4.010s-11.024-1.487-15.648-4.093l0.16 0.083-479.019-257.963c-4.805-2.82-8.7-6.715-11.439-11.371l-0.081-0.149c-2.815-4.721-4.479-10.412-4.479-16.491s1.664-11.77 4.562-16.641l-0.083 0.15c2.997-4.968 7.251-8.907 12.328-11.442l0.173-0.078 210.005-111.829c-1.321-2.007-2.351-4.343-2.956-6.846l-0.031-0.152c-0.623-2.393-0.981-5.139-0.981-7.97 0-0.018 0-0.036 0-0.054v0.003-270.976c0.005-4.861 0.912-9.51 2.564-13.788l-0.089 0.262c1.717-4.393 4.679-7.988 8.449-10.445l0.084-0.051c18.135-11.158 39.379-22.077 61.46-31.405l3.18-1.193c52.747-18.13 113.524-28.598 176.746-28.598 12.226 0 24.361 0.391 36.393 1.163l-1.641-0.084zM509.995 361.344l-411.861 218.923 413.013 221.013 413.013-221.013-413.867-219.008zM509.995 133.333c-5.793-0.189-12.605-0.297-19.441-0.297-47.525 0-93.835 5.206-138.389 15.079l4.23-0.787c-26.689 6.233-49.859 14.142-71.947 24.035l2.485-0.995v236.971l208-109.995c2.007-1.321 4.343-2.351 6.846-2.956l0.152-0.031c2.391-0.637 5.138-1.010 7.97-1.024h0.009c0.079-0.001 0.173-0.001 0.267-0.001 2.577 0 5.071 0.359 7.434 1.029l-0.192-0.046c2.935 0.911 5.422 1.925 7.801 3.12l-0.292-0.133 210.987 110.933v-238.933c-20.016-8.411-44.065-16.151-68.873-21.912l-3.148-0.616c-40.498-8.75-87.022-13.761-134.716-13.761-6.775 0-13.527 0.101-20.254 0.302l0.986-0.023z" />
<glyph unicode="&#xe929;" glyph-name="work-placeholder" horiz-adv-x="1034" d="M969.088-49.749c35.484 0.474 64.123 29.114 64.597 64.552v678.402c-0.474 35.484-29.114 64.123-64.552 64.597h-258.477v62.635c0.004 0.327 0.006 0.714 0.006 1.101 0 26.317-10.83 50.104-28.276 67.148l-0.018 0.018c-16.913 17.739-40.726 28.769-67.116 28.769-0.525 0-1.048-0.004-1.571-0.013l0.079 0.001h-193.877c-0.46 0.008-1.002 0.013-1.546 0.013-26.373 0-50.169-11.032-67.026-28.732l-0.036-0.038c-17.464-17.062-28.294-40.849-28.294-67.166 0-0.387 0.002-0.774 0.007-1.16l-0.001 0.059v-62.677h-258.432c-0.169 0.002-0.369 0.003-0.569 0.003-17.629 0-33.543-7.343-44.85-19.138l-0.021-0.022c-11.791-11.318-19.117-27.209-19.117-44.812 0-0.206 0.001-0.411 0.003-0.616v0.031-678.4c-0.001-0.144-0.002-0.314-0.002-0.484 0-17.629 7.343-33.543 19.137-44.85l0.022-0.021c11.328-11.817 27.242-19.16 44.871-19.16 0.2 0 0.4 0.001 0.599 0.003h904.503zM646.059 757.803h-258.432v62.635c0.237 17.742 14.557 32.062 32.276 32.298h193.9c0.115 0.001 0.25 0.002 0.386 0.002 17.65 0 31.957-14.308 31.957-31.957 0-0.136-0.001-0.271-0.003-0.407v0.021zM419.925 466.133h-355.328v227.072h904.533v-227.072h-355.413v33.28c-0.497 35.46-29.099 64.076-64.505 64.597l-0.049 0.001h-64.64c-0.371 0.008-0.809 0.013-1.248 0.013-17.566 0-33.414-7.351-44.637-19.144l-0.024-0.026c-11.543-11.42-18.692-27.263-18.692-44.776 0-0.234 0.001-0.467 0.004-0.7v0.035-33.323zM549.12 336.939h-64.555v162.389h64.555v-162.517zM969.088 14.891h-904.491v386.645h355.371v-64.64c-0.003-0.217-0.004-0.473-0.004-0.73 0-35.228 28.558-63.787 63.787-63.787 0.272 0 0.543 0.002 0.813 0.005h64.599c0.195-0.002 0.426-0.003 0.657-0.003 17.501 0 33.333 7.149 44.734 18.685l0.006 0.006c11.844 11.244 19.212 27.103 19.212 44.683 0 0.431-0.004 0.861-0.013 1.29l0.001-0.064v64.555h355.328z" />
<glyph unicode="&#xe92a;" glyph-name="info" d="M512.019-64.038c0.898-0.006 1.96-0.009 3.022-0.009 94.688 0 183.274 26.128 258.941 71.568l-2.28-1.27c76.437 43.981 138.18 105.724 180.913 179.814l1.248 2.346c44.077 73.327 70.148 161.822 70.148 256.407 0 1.152-0.004 2.302-0.012 3.452l0.001-0.177c0.007 0.973 0.011 2.124 0.011 3.276 0 94.585-26.071 183.080-71.419 258.693l1.271-2.285c-43.981 76.437-105.724 138.18-179.814 180.913l-2.346 1.248c-74.205 44.093-163.597 70.154-259.077 70.154s-184.873-26.061-261.453-71.458l2.376 1.304c-152.631-90.569-253.351-254.496-253.396-441.951v-0.006c-0.005-0.809-0.007-1.766-0.007-2.723 0-94.364 26.073-182.638 71.407-258.012l-1.263 2.263c44.167-76.592 105.792-138.617 179.684-181.997l2.325-1.262c73.387-44.17 161.973-70.298 256.661-70.298 1.076 0 2.151 0.003 3.225 0.010l-0.166-0.001zM512.019 36.889c-0.471-0.002-1.029-0.003-1.587-0.003-75.752 0-146.588 21.052-206.975 57.624l1.785-1.003c-61.826 35.861-111.836 85.872-146.676 145.794l-1.022 1.904c-35.574 59.127-56.617 130.494-56.617 206.777s21.043 147.651 57.641 208.616l-1.024-1.839c35.861 61.826 85.872 111.836 145.794 146.676l1.904 1.022c59.127 35.574 130.494 56.617 206.777 56.617s147.651-21.043 208.616-57.641l-1.839 1.024c61.826-35.861 111.836-85.872 146.676-145.794l1.022-1.904c35.574-59.127 56.617-130.494 56.617-206.777s-21.043-147.651-57.641-208.616l1.024 1.839c-35.861-61.826-85.872-111.836-145.794-146.676l-1.904-1.022c-58.603-35.569-129.438-56.621-205.19-56.621-0.558 0-1.115 0.001-1.673 0.003h0.086zM562.463 601.814v103.426h-100.927v-103.388zM562.463 190.722v307.855h-100.927v-307.704z" />
<glyph unicode="&#xe92b;" glyph-name="back-arrow-blue" horiz-adv-x="1136" d="M500.139-63.915c0.325-0.006 0.708-0.010 1.092-0.010 18.202 0 34.552 7.926 45.788 20.515l0.053 0.060c11.398 10.843 18.487 26.124 18.487 43.060 0 0.897-0.020 1.789-0.059 2.677l0.004-0.126c-0.309 17.905-7.85 33.989-19.819 45.505l-0.021 0.020-317.696 306.133h842.795c0.116-0.001 0.253-0.001 0.39-0.001 16.988 0 32.408 6.718 43.747 17.641l-0.020-0.019c11.934 10.568 19.678 25.634 20.559 42.517l0.006 0.15c0.085 1.225 0.134 2.654 0.134 4.095 0 17.374-7.065 33.099-18.478 44.457l-0.002 0.002c-11.729 12.667-28.446 20.571-47.009 20.571-0.288 0-0.576-0.002-0.863-0.006h-844.201l317.696 305.792c12.63 11.011 20.567 27.129 20.567 45.101 0 0.149-0.001 0.299-0.002 0.448v-0.023c0.002 0.203 0.004 0.443 0.004 0.684 0 17.728-6.993 33.822-18.372 45.675l0.022-0.023c-10.78 12.196-26.461 19.847-43.929 19.847-0.321 0-0.642-0.003-0.962-0.008l0.048 0.001c-0.121 0.001-0.264 0.001-0.407 0.001-17.881 0-34.201-6.682-46.599-17.686l0.073 0.063-432.512-417.664c-12.67-11.469-20.596-27.977-20.596-46.336s7.926-34.867 20.542-46.288l0.053-0.048 435.2-419.157c11.348-10.957 26.819-17.708 43.867-17.708 0.118 0 0.236 0 0.354 0.001h-0.018z" />
<glyph unicode="&#xe92c;" glyph-name="right-arrow" horiz-adv-x="1698" d="M1231.082-64.001c1.034-0.088 2.238-0.137 3.453-0.137 10.966 0 20.983 4.063 28.628 10.765l-0.050-0.043 424.467 466.98c6.622 8.76 10.606 19.835 10.606 31.841s-3.985 23.081-10.703 31.975l0.097-0.134q-5.327 5.258-424.467 466.98c-7.341 9.706-18.866 15.912-31.841 15.912s-24.5-6.206-31.769-15.812l-0.072-0.1c-9.706-7.341-15.912-18.866-15.912-31.841s6.206-24.5 15.812-31.769l0.1-0.072 355.32-392.782h-1512.080c-1.597 0.241-3.441 0.378-5.316 0.378-20.728 0-37.531-16.803-37.531-37.531 0-1.854 0.134-3.677 0.394-5.459l-0.024 0.203c-0.242-1.6-0.38-3.447-0.38-5.326 0-20.728 16.803-37.531 37.531-37.531 1.879 0 3.726 0.138 5.531 0.405l-0.204-0.025h1512.080l-134.905-149.088-220.587-243.383c-9.706-7.341-15.912-18.866-15.912-31.841s6.206-24.5 15.812-31.769l0.1-0.072c7.599-6.671 17.624-10.742 28.601-10.742 1.146 0 2.283 0.044 3.407 0.132l-0.149-0.009z" />
<glyph unicode="&#xe92d;" glyph-name="left-arrow" horiz-adv-x="1698" d="M466.911-64c-0.975-0.078-2.111-0.122-3.258-0.122-10.976 0-21.002 4.070-28.65 10.784l0.049-0.042-424.329 466.911c-6.622 8.76-10.606 19.835-10.606 31.841s3.985 23.081 10.703 31.975l-0.097-0.134q5.327 5.258 424.467 466.98c7.341 9.706 18.866 15.912 31.841 15.912s24.5-6.206 31.769-15.812l0.072-0.1c9.706-7.341 15.912-18.866 15.912-31.841s-6.206-24.5-15.812-31.769l-0.1-0.072-355.631-392.747h1512.080c1.6 0.242 3.447 0.38 5.326 0.38 20.728 0 37.531-16.803 37.531-37.531 0-1.879-0.138-3.726-0.405-5.531l0.025 0.204c0.242-1.6 0.38-3.447 0.38-5.326 0-20.728-16.803-37.531-37.531-37.531-1.879 0-3.726 0.138-5.531 0.405l0.204-0.025h-1512.080l134.905-149.088 220.587-243.314c9.706-7.341 15.912-18.866 15.912-31.841s-6.206-24.5-15.812-31.769l-0.1-0.072c-7.599-6.671-17.624-10.742-28.601-10.742-1.146 0-2.283 0.044-3.407 0.132l0.149-0.009z" />
<glyph unicode="&#xe92e;" glyph-name="carrot-down" d="M512 138.24l384 384-90.624 90.624-293.376-294.912-293.376 294.912-90.624-90.624z" />
<glyph unicode="&#xe92f;" glyph-name="friends" horiz-adv-x="1207" d="M385.109 501.547c0.221-0.001 0.482-0.002 0.743-0.002 29.593 0 57.243 8.318 80.74 22.743l-0.672-0.384c24.674 14.697 44.664 34.879 58.715 58.953l0.421 0.781c13.644 23.615 21.695 51.945 21.695 82.155s-8.050 58.54-22.123 82.961l0.428-0.806c-14.48 24.848-34.469 45.028-58.384 59.317l-0.752 0.416c-23.165 14.005-51.148 22.292-81.067 22.292s-57.902-8.287-81.779-22.691l0.712 0.399c-49.297-29.069-82.036-81.601-82.815-141.841l-0.001-0.111c-0.001-0.15-0.001-0.327-0.001-0.504 0-29.901 8.313-57.86 22.754-81.693l-0.396 0.703c29.069-49.297 81.601-82.036 141.841-82.815l0.111-0.001zM821.461 501.547c0.129 0 0.281-0.001 0.433-0.001 29.925 0 57.908 8.313 81.766 22.755l-0.706-0.397c49.797 28.741 82.774 81.709 82.774 142.379 0 90.486-73.354 163.84-163.84 163.84-0.15 0-0.301 0-0.451-0.001h0.023c-0.15 0.001-0.327 0.001-0.504 0.001-29.901 0-57.86-8.313-81.693-22.754l0.703 0.396c-49.297-29.069-82.036-81.601-82.815-141.841l-0.001-0.111c-0.001-0.15-0.001-0.327-0.001-0.504 0-29.901 8.313-57.86 22.754-81.693l-0.396 0.703c29.069-49.297 81.601-82.036 141.841-82.815l0.111-0.001zM1206.571 65.195v136.533c-3.755 46.553-31.244 85.928-70.23 106.321l-0.725 0.345c-44.993 28.021-97.182 50.18-152.769 63.638l-3.647 0.746c-47.134 12.558-101.415 20.179-157.338 21.028l-0.528 0.006c-1.88 0.034-4.097 0.053-6.318 0.053-15.818 0-31.407-0.981-46.71-2.884l1.828 0.185c63.908-40.106 106.165-109.582 107.772-189.036l0.004-0.234v-136.533zM767.573 65.195v136.533c-3.755 46.553-31.244 85.928-70.23 106.321l-0.725 0.345c-44.577 28.232-96.348 50.408-151.587 63.673l-3.506 0.711c-46.719 12.624-100.502 20.251-155.94 21.029l-0.476 0.005c-56.433-0.81-110.718-8.435-162.559-22.085l4.692 1.050c-59.233-14.167-111.426-36.33-158.678-65.693l2.262 1.309c-39.71-20.739-67.199-60.113-70.924-106.2l-0.030-0.466v-136.533h767.573z" />
<glyph unicode="&#xe930;" glyph-name="correct" d="M738.328 610.461c15.625-15.625 15.625-40.953 0-56.57l-268.344-268.352c-15.625-15.617-40.945-15.617-56.57 0l-127.742 127.75c-15.625 15.617-15.625 40.945 0 56.563 15.617 15.625 40.945 15.625 56.563 0l99.461-99.461 240.063 240.070c15.625 15.617 40.953 15.617 56.57 0zM1024 448c0-283.008-229.031-512-512-512-283.008 0-512 229.031-512 512 0 283.008 229.031 512 512 512 283.008 0 512-229.031 512-512zM944 448c0 238.789-193.242 432-432 432-238.789 0-432-193.242-432-432 0-238.789 193.242-432 432-432 238.789 0 432 193.242 432 432z" />
<glyph unicode="&#xe931;" glyph-name="pin" d="M512 960c-204.49 0-370.854-166.364-370.854-370.852 0-253.776 331.878-626.334 346.008-642.070 13.272-14.782 36.444-14.756 49.692 0 14.13 15.736 346.008 388.294 346.008 642.070-0.004 204.488-166.366 370.852-370.854 370.852zM512 402.562c-102.884 0-186.584 83.702-186.584 186.586s83.702 186.584 186.584 186.584 186.582-83.702 186.582-186.586-83.7-186.584-186.582-186.584z" />
<glyph unicode="&#xe932;" glyph-name="shield" d="M512.001 960l-418.909-186.181v-279.273c0-258.561 178.501-499.665 418.909-558.546 240.408 58.881 418.909 299.985 418.909 558.546v279.273l-418.909 186.181zM418.909 215.273l-186.181 186.181 65.863 65.863 120.319-120.321 306.502 306.502 65.863-65.863-372.365-372.362z" />
<glyph unicode="&#xe933;" glyph-name="rss" d="M286.932 79.796c0-79.234-64.232-143.466-143.466-143.466s-143.466 64.232-143.466 143.466c0 79.234 64.232 143.466 143.466 143.466s143.466-64.232 143.466-143.466zM0 587.846v-186.24c256.988 0 465.276-208.618 465.276-465.276h186.24c0 359.651-291.865 651.516-651.516 651.516zM0 960v-186.24c462.641 0 837.756-375.115 837.756-837.756h186.24c-0.327 565.631-458.693 1023.997-1023.997 1023.997z" />
<glyph unicode="&#xe934;" glyph-name="attach" horiz-adv-x="1059" d="M179.672-63.831c1.676 0.051 3.274 0.249 4.822 0.581l-0.175-0.031c1.389 0.331 2.99 0.53 4.634 0.549h0.013c25.078 1.585 48.292 8.087 69.177 18.551l-1.035-0.469c23.494 11.686 43.596 26.35 60.853 43.828l0.023 0.024 471.803 502.727c26.988 24.65 45.281 58.42 49.984 96.403l0.077 0.763c0.334 3.174 0.525 6.857 0.525 10.585 0 31.366-13.495 59.58-34.996 79.153l-0.086 0.077c-13.17 14.489-29.888 25.523-48.791 31.75l-0.806 0.23c-11.252 3.33-24.179 5.246-37.554 5.246-1.294 0-2.583-0.018-3.868-0.054l0.189 0.004c-15.961-1.661-30.499-6.441-43.44-13.724l0.56 0.29c-16.34-9.168-30.425-19.78-42.914-32.014l0.034 0.033-355.12-379.158c-5.758-6.151-9.295-14.444-9.295-23.563 0-0.078 0-0.155 0.001-0.233v0.012c-0.001-0.076-0.001-0.165-0.001-0.254 0-8.976 3.999-17.017 10.312-22.441l0.039-0.033c6.134-5.733 14.398-9.253 23.485-9.253 0.090 0 0.181 0 0.271 0.001h-0.014c0.086-0.001 0.188-0.001 0.29-0.001 8.956 0 16.983 3.982 22.406 10.271l0.032 0.038 355.077 377.89c7.027 6.603 14.811 12.559 23.161 17.683l0.623 0.356c5.885 3.833 12.842 6.569 20.319 7.735l0.297 0.038c5.014-0.307 9.625-0.879 14.142-1.714l-0.708 0.109c10.121-3.008 18.602-8.932 24.717-16.79l0.082-0.109c10.364-7.565 17.021-19.671 17.021-33.332 0-7.285-1.893-14.128-5.215-20.064l0.107 0.208c-8.044-15.56-17.508-28.962-28.542-40.888l0.11 0.121-471.761-501.84c-11.446-12.303-24.951-22.503-40-30.089l-0.81-0.37c-12.745-6.628-27.692-10.919-43.535-11.898l-0.316-0.016c-2.565-0.264-5.542-0.415-8.554-0.415-12.572 0-24.531 2.624-35.36 7.354l0.57-0.222c-14.797 6.572-27.411 15.439-37.997 26.294l-0.024 0.025c-23.607 23.473-38.217 55.973-38.217 91.885s14.61 68.412 38.211 91.879l0.006 0.006 593.387 629.803c24.047 27.991 59.484 45.61 99.037 45.61 9.541 0 18.842-1.025 27.8-2.971l-0.86 0.157c46.077-9.559 85.865-31.993 116.606-63.333l0.035-0.036c17.065-16.51 30.462-36.701 38.924-59.301l0.365-1.111c8.507-21.98 13.436-47.415 13.436-74.002 0-0.302-0.001-0.603-0.002-0.904v0.047c-0.693-27.293-6.325-53.082-16.028-76.77l0.524 1.446c-9.782-24.422-23.401-45.337-40.332-63.064l0.071 0.075-449.117-477.041c-5.454-6.152-8.784-14.294-8.784-23.214 0-9.446 3.735-18.019 9.809-24.324l-0.010 0.011c5.823-5.464 13.681-8.82 22.322-8.82 0.514 0 1.026 0.012 1.535 0.035l-0.072-0.003c9.085 0.296 17.153 4.408 22.696 10.777l0.032 0.038 448.99 477.041c22.372 23.138 40.512 50.535 53.064 80.832l0.63 1.717c12.534 29.567 20.058 63.913 20.613 99.949l0.003 0.216c0.049 1.868 0.077 4.067 0.077 6.273 0 33.985-6.654 66.416-18.73 96.061l0.614-1.704c-12.752 32.276-30.768 59.897-53.256 83.169l0.069-0.071c-23.798 23.641-51.391 43.501-81.778 58.578l-1.827 0.82c-26.040 13.003-56.457 21.527-88.616 23.702l-0.734 0.040c-3.663 0.224-7.946 0.352-12.259 0.352-27.127 0-53.072-5.058-76.945-14.282l1.459 0.496c-30.203-11.665-55.882-29.064-76.807-51.033l-0.080-0.085-593.556-629.718c-35.12-35.343-56.827-84.050-56.827-137.827s21.707-102.484 56.837-137.838l-0.010 0.010c16.074-16.282 35.053-29.649 56.104-39.27l1.182-0.484c19.204-8.807 41.661-13.941 65.318-13.941 0.072 0 0.145 0 0.217 0h-0.011z" />
<glyph unicode="&#xe935;" glyph-name="pdf" horiz-adv-x="773" d="M440.918 525.265c-7.020 5.861-15.319 10.47-24.39 13.342l-0.513 0.14c-9.034 1.975-19.412 3.107-30.054 3.107-0.74 0-1.48-0.005-2.217-0.016l0.112 0.001h-47.703c-0.451 0.026-0.979 0.042-1.51 0.042-6.064 0-11.669-1.964-16.214-5.291l0.077 0.054c-3.295-4.254-5.282-9.666-5.282-15.542 0-0.741 0.032-1.475 0.094-2.2l-0.007 0.094v-133.834c-0.097-0.915-0.152-1.977-0.152-3.052 0-4.129 0.813-8.068 2.287-11.666l-0.074 0.205c0.859-3.58 3.123-6.518 6.163-8.254l0.063-0.033c3.852-2.006 8.411-3.182 13.245-3.182 0.809 0 1.61 0.033 2.402 0.098l-0.104-0.007h47.703c8.172 0.136 16.062 0.88 23.76 2.19l-0.918-0.129c7.244 1.437 13.504 3.231 19.545 5.478l-0.867-0.283c5.976 2.761 11.106 6.242 15.576 10.421l-0.033-0.031c5.927 5.726 11.076 12.199 15.308 19.283l0.235 0.425c4.085 7.181 7.304 15.506 9.211 24.32l0.106 0.584c1.97 8.612 3.099 18.502 3.099 28.656 0 0.492-0.003 0.984-0.008 1.475l0.001-0.075c0.165 2.052 0.258 4.443 0.258 6.855 0 26.38-11.216 50.14-29.14 66.771l-0.058 0.053zM413.954 396.454c-2.69-2.005-5.76-3.75-9.037-5.094l-0.281-0.102c-3.038-1.018-6.571-1.749-10.227-2.050l-0.164-0.011h-42.55v124.517h24.903c0.828 0.030 1.8 0.047 2.776 0.047 9.411 0 18.451-1.589 26.866-4.515l-0.574 0.174c8.862-2.899 15.896-9.26 19.625-17.444l0.083-0.203c5.284-10.696 8.375-23.286 8.375-36.598 0-1.353-0.032-2.699-0.095-4.037l0.007 0.189c0.127-1.594 0.199-3.451 0.199-5.325 0-19.185-7.589-36.597-19.928-49.399l0.021 0.022zM770.845 755.621l-1.030 1.030v1.030l-198.153 198.025c-0.569 0-1.030 0.461-1.030 1.030v0c-0.569 0-1.030 0.461-1.030 1.030v0c-2.473 1.461-5.449 2.324-8.626 2.324-0.621 0-1.235-0.033-1.839-0.097l0.075 0.006h-488.664c-0.141 0.001-0.307 0.002-0.474 0.002-18.809 0-35.862-7.522-48.314-19.721l0.012 0.011-1.030-1.030c-12.609-12.843-20.475-30.382-20.738-49.756l-0.001-0.051v-882.867c0.043-19.463 7.962-37.068 20.737-49.805l0.002-0.002c12.843-12.609 30.382-20.475 49.756-20.738l0.051-0.001h631.815c19.463 0.043 37.068 7.962 49.805 20.737l0.002 0.002c12.613 12.841 20.479 30.381 20.738 49.757l0.001 0.050v738.728c-0.098 3.73-0.845 7.258-2.133 10.513l0.073-0.208zM578.917 885.29l117.217-117.217h-86.088c-0.236-0.007-0.513-0.011-0.791-0.011-8.313 0-15.787 3.59-20.956 9.304l-0.022 0.024c-5.55 5.616-9.058 13.259-9.316 21.72l-0.001 0.049v86.131zM728.294 6.545c-0.774-14.57-12.394-26.19-26.893-26.961l-0.071-0.003h-630.785c-7.175 0.227-13.676 2.935-18.716 7.289l0.038-0.032c-4.498 4.518-7.278 10.749-7.278 17.629 0 0.369 0.008 0.736 0.024 1.1l-0.002-0.052v884.971c0.102 7.378 3.264 13.998 8.271 18.663l0.016 0.014 1.030 1.030c4.72 4.16 10.836 6.837 17.564 7.252l0.083 0.004h464.791v-117.217c0.033-21.147 8.773-40.247 22.825-53.912l0.017-0.017c13.842-13.466 32.766-21.77 53.629-21.77 0.105 0 0.21 0 0.316 0.001h115.141zM265.564 527.369c-5.282 5.097-11.98 8.76-19.446 10.344l-0.262 0.047c-8.506 2.002-18.273 3.149-28.308 3.149-1.354 0-2.704-0.021-4.048-0.062l0.197 0.005h-47.703c-0.631 0.055-1.364 0.087-2.105 0.087-5.876 0-11.288-1.987-15.6-5.326l0.059 0.044c-4.294-3.091-5.195-9.317-5.195-17.647v-141.090c-0.009-0.259-0.014-0.563-0.014-0.869 0-5.932 1.956-11.408 5.259-15.816l-0.049 0.069c2.928-3.247 7.15-5.28 11.846-5.28 0.576 0 1.145 0.031 1.706 0.090l-0.070-0.006c5.373 0.075 10.173 2.461 13.465 6.205l0.018 0.020c3.253 4.34 5.21 9.815 5.21 15.748 0 0.305-0.005 0.61-0.015 0.913l0.001-0.044v51.868h34.349c1.565-0.112 3.391-0.175 5.232-0.175 17.121 0 32.957 5.506 45.832 14.844l-0.226-0.156c10.906 9.668 17.744 23.712 17.744 39.354 0 1.125-0.035 2.241-0.105 3.348l0.008-0.151c0.010 0.409 0.016 0.891 0.016 1.375 0 8.102-1.583 15.835-4.456 22.906l0.146-0.408c-3.8 6.368-8.271 11.837-13.429 16.568l-0.053 0.048zM240.661 469.275c-3.354-4.381-7.967-7.646-13.295-9.268l-0.187-0.049c-6.117-1.969-13.154-3.104-20.456-3.104-0.462 0-0.922 0.005-1.382 0.014l0.069-0.001h-24.903v55.818h24.903c1.445 0.144 3.124 0.226 4.822 0.226 10.563 0 20.383-3.178 28.557-8.631l-0.188 0.118c4.524-4.638 7.314-10.984 7.314-17.982 0-0.607-0.021-1.21-0.062-1.806l0.004 0.081c-0.511-5.775-2.378-11.026-5.278-15.552l0.082 0.137zM524.988 542.955c-5.024-0.521-9.597-2.050-13.649-4.382l0.167 0.088c-3.353-1.301-5.955-3.904-7.227-7.171l-0.029-0.085c-1.432-3.020-2.268-6.562-2.268-10.3 0-1.122 0.075-2.227 0.221-3.309l-0.014 0.126v-140.060c-0.030-0.456-0.048-0.988-0.048-1.524 0-5.724 1.975-10.986 5.281-15.143l-0.038 0.050c2.928-3.247 7.15-5.28 11.846-5.28 0.576 0 1.145 0.031 1.706 0.090l-0.070-0.006c5.172 0.165 9.862 2.102 13.512 5.221l-0.030-0.025c3.253 4.34 5.21 9.815 5.21 15.748 0 0.305-0.005 0.61-0.015 0.913l0.001-0.044v60.112h61.357c0.384-0.032 0.832-0.050 1.283-0.050 4.312 0 8.238 1.651 11.181 4.354l-0.012-0.011c2.664 2.221 4.348 5.541 4.348 9.254 0 0.4-0.020 0.796-0.058 1.186l0.004-0.049c0.008 0.175 0.013 0.381 0.013 0.588 0 3.874-1.655 7.362-4.297 9.795l-0.009 0.009c-3.45 2.553-7.751 4.141-12.416 4.293l-0.036 0.001h-61.4v46.672h72.606c0.555-0.062 1.198-0.097 1.849-0.097 4.468 0 8.547 1.665 11.652 4.407l-0.019-0.016c2.569 2.692 4.151 6.346 4.151 10.369s-1.581 7.678-4.156 10.375l0.006-0.006c-3.085 2.727-7.165 4.391-11.633 4.391-0.651 0-1.295-0.035-1.928-0.104l0.078 0.007z" />
<glyph unicode="&#xe936;" glyph-name="question" d="M554.664 192c0-23.563-19.102-42.664-42.664-42.664s-42.664 19.102-42.664 42.664 19.102 42.664 42.664 42.664 42.664-19.102 42.664-42.664zM512-64c-282.328 0-512 229.672-512 512s229.672 512 512 512 512-229.672 512-512-229.672-512-512-512zM512 896c-247.039 0-448-200.961-448-448s200.961-448 448-448 448 200.961 448 448-200.961 448-448 448zM512 330.664c-17.664 0-32 14.336-32 32v43.094c0 40.617 25.773 77.016 64.086 90.539 50.984 17.961 85.25 72.281 85.25 111.703 0 64.727-52.609 117.336-117.336 117.336s-117.336-52.609-117.336-117.336c0-17.664-14.336-32-32-32s-32 14.336-32 32c0 99.969 81.328 181.336 181.336 181.336s181.336-81.367 181.336-181.336c0-71.172-56.195-146.734-127.961-172.078-12.797-4.477-21.375-16.633-21.375-30.203v-43.055c0-17.664-14.336-32-32-32z" />
<glyph unicode="&#xe937;" glyph-name="projects" d="M672 128c0.932-0.028 2.027-0.044 3.127-0.044 24.38 0 46.918 7.889 65.2 21.254l-0.313-0.218c16.692 11.134 27.629 29.755 27.985 50.952l0.001 0.053v62.024c74.743 29.92 137.474 76.222 186.011 134.725l0.613 0.761c42.818 50.569 68.982 116.43 69.376 188.393v0.085q0 155.044-150.016 264.509t-361.984 109.507q-212.050 0-361.984-109.435-150.016-109.64-150.016-264.581c0.365-72.038 26.501-137.901 69.652-188.911l-0.358 0.434c49.179-59.263 111.936-105.565 183.605-134.384l3.101-1.101v-62.013c0.338-21.258 11.281-39.889 27.758-50.873l0.228-0.143c17.902-13.149 40.377-21.042 64.696-21.042 1.167 0 2.329 0.018 3.488 0.054l-0.169-0.004zM672 199.997h-320v107.008l-2.724 1.024c-50.335 15.281-94.176 37.442-133.186 65.839l1.264-0.877c-36.005 25.83-65.835 57.782-88.538 94.596l-0.806 1.404c-20.108 33.458-32.001 73.836-32.001 116.992s11.893 83.534 32.581 118.035l-0.58-1.043c23.473 38.243 53.31 70.202 88.37 95.336l0.974 0.664c37.717 27.551 81.532 49.732 128.72 64.201l3.12 0.823c48.683 15.228 104.661 24 162.688 24s114.004-8.772 166.679-25.063l-3.991 1.063c50.371-15.292 94.244-37.474 133.278-65.901l-1.264 0.877c36.030-25.799 65.863-57.757 88.53-94.596l0.804-1.404c20.108-33.458 32.001-73.836 32.001-116.992s-11.893-83.534-32.581-118.035l0.58 1.043c-23.535-38.201-53.36-70.147-88.373-95.335l-0.971-0.665c-37.771-27.529-81.645-49.691-128.887-64.14l-3.127-0.823-0.338-0.123-2.304-0.901v-107.008zM682.67-64c0.476-0.015 1.036-0.023 1.597-0.023 12.166 0 23.41 3.946 32.523 10.627l-0.154-0.108c8.465 5.454 13.991 14.833 13.991 25.503s-5.526 20.048-13.872 25.431l-0.119 0.072c-8.934 6.574-20.155 10.521-32.298 10.521-0.586 0-1.171-0.009-1.753-0.027l0.085 0.002h-341.34c-0.492 0.016-1.070 0.025-1.651 0.025-12.175 0-23.429-3.946-32.552-10.629l0.155 0.108c-8.465-5.454-13.991-14.833-13.991-25.503s5.526-20.048 13.872-25.431l0.119-0.072c8.944-6.576 20.175-10.523 32.327-10.523 0.605 0 1.208 0.010 1.808 0.029l-0.088-0.002z" />
<glyph unicode="&#xe938;" glyph-name="flag" d="M876.732 906.308c-3.465 1.382-86.357 34.082-184.576 34.082-58.607 0-110.421-11.725-154.010-34.85-38.622-20.497-91.017-30.874-155.733-30.874-90.59 0-179.917 20.685-211.746 28.894v39.373c0 9.438-7.629 17.067-17.067 17.067s-17.067-7.629-17.067-17.067v-51.2c0-0.239 0.119-0.444 0.137-0.683 0-0.205-0.137-0.375-0.137-0.58v-937.404c0-9.438 7.629-17.067 17.067-17.067s17.067 7.629 17.067 17.067v403.234c38.793-9.626 123.614-27.767 211.746-27.767 70.349 0 128.119 11.742 171.725 34.85 38.622 20.497 85.043 30.891 138.018 30.891 91.426 0 171.127-31.334 171.913-31.642 5.274-2.116 11.213-1.468 15.906 1.741 4.676 3.14 7.492 8.431 7.492 14.097v512c0 6.98-4.25 13.244-10.735 15.838z" />
<glyph unicode="&#xe939;" glyph-name="like-thumb" d="M979.834 263.843c20.985 26.767 31.050 55.461 29.765 85.012-1.285 32.549-15.846 58.031-27.838 73.663 13.919 34.69 19.272 89.295-27.195 131.694-34.048 31.050-91.864 44.969-171.951 41.114-56.318-2.57-103.428-13.062-105.355-13.491h-0.214c-10.707-1.927-22.056-4.283-33.619-6.852-0.857 13.705 1.499 47.752 26.767 124.413 29.979 91.222 28.266 161.031-5.568 207.712-35.547 49.037-92.293 52.892-108.995 52.892-16.060 0-30.836-6.638-41.328-18.844-23.769-27.624-20.985-78.588-17.987-102.143-28.266-75.804-107.496-261.675-174.521-313.281-1.285-0.857-2.355-1.927-3.426-2.998-19.701-20.771-32.977-43.256-41.971-62.956-12.634 6.852-26.981 10.707-42.399 10.707h-130.623c-49.251 0-89.081-40.043-89.081-89.081v-347.972c0-49.251 40.043-89.081 89.081-89.081h130.623c19.058 0 36.831 5.996 51.393 16.274l50.322-5.996c7.709-1.071 144.756-18.416 285.444-15.632 25.482-1.927 49.465-2.998 71.736-2.998 38.33 0 71.736 2.998 99.573 8.994 65.526 13.919 110.28 41.757 132.979 82.657 17.345 31.264 17.345 62.314 14.561 82.014 42.613 38.545 50.108 81.158 48.609 111.137-0.857 17.345-4.711 32.12-8.78 43.041zM103.374 2.168c-17.345 0-31.264 14.133-31.264 31.264v348.186c0 17.345 14.133 31.264 31.264 31.264h130.623c17.345 0 31.264-14.133 31.264-31.264v-347.972c0-17.345-14.133-31.264-31.264-31.264h-130.623v-0.214zM925.015 288.897c-8.994-9.422-10.707-23.769-3.854-34.904 0-0.214 8.78-15.204 9.85-35.761 1.499-28.052-11.992-52.892-40.258-74.091-10.064-7.709-14.133-20.985-9.85-32.977 0-0.214 9.208-28.48-5.782-55.247-14.347-25.696-46.253-44.112-94.648-54.391-38.759-8.351-91.436-9.85-156.105-4.711-0.857 0-1.927 0-2.998 0-137.69-2.998-276.878 14.99-278.377 15.204h-0.214l-21.628 2.57c1.285 5.996 1.927 12.42 1.927 18.844v348.186c0 9.208-1.499 18.202-4.069 26.553 3.854 14.347 14.561 46.253 39.829 73.449 96.147 76.233 190.153 333.41 194.222 344.545 1.713 4.497 2.141 9.422 1.285 14.347-3.64 23.983-2.355 53.32 2.784 62.1 11.349-0.214 41.971-3.426 60.386-28.908 21.842-30.193 20.985-84.156-2.57-155.677-35.975-108.995-38.973-166.384-10.493-191.652 14.133-12.634 32.977-13.276 46.682-8.351 13.062 2.998 25.482 5.568 37.26 7.495 0.857 0.214 1.927 0.428 2.784 0.642 65.74 14.347 183.515 23.127 224.415-14.133 34.69-31.692 10.064-73.663 7.281-78.16-7.923-11.992-5.568-27.624 5.139-37.26 0.214-0.214 22.698-21.414 23.769-49.894 0.857-19.058-8.137-38.545-26.767-57.817z" />
<glyph unicode="&#xe93a;" glyph-name="facebook2" d="M874 960h-724c-82.703 0-150-67.297-150-150v-724c0-82.703 67.297-150 150-150h302v362h-120v180h120v122c0 99.258 80.742 180 180 180h182v-180h-182v-122h182l-30-180h-152v-362h242c82.703 0 150 67.297 150 150v724c0 82.703-67.297 150-150 150z" />
<glyph unicode="&#xe93b;" glyph-name="yt2" d="M967.665 903.672c-37.54 37.55-82.77 56.328-135.654 56.328h-640.005c-52.884 0-98.114-18.778-135.671-56.328-37.55-37.557-56.328-82.784-56.328-135.671v-639.998c0-52.882 18.778-98.114 56.328-135.671 37.557-37.557 82.787-56.335 135.671-56.335h639.998c52.884 0 98.114 18.778 135.654 56.335 37.557 37.557 56.335 82.787 56.335 135.671v639.998c-0.002 52.886-18.781 98.121-56.328 135.671zM604.678 812.010h44.669v-181.325c0-10.671 0.208-16.45 0.654-17.34 0.448-7.113 4.014-10.664 10.676-10.664 8.887 0 18.23 6.884 27.999 20.66v188.669h44.669v-246.667h-44.686v26.678c-18.22-19.995-35.327-30.005-51.324-30.005-14.216 0-23.773 5.996-28.67 17.999-2.671 7.995-3.988 20.221-3.988 36.67v195.326zM436.011 732.006c0 25.774 4.668 45.113 14.001 57.998 11.997 16.887 29.326 25.335 51.992 25.335 21.784 0 39.121-8.455 51.997-25.335 9.34-12.887 14.008-32.224 14.008-57.998v-86.67c0-26.669-4.668-46.003-14.008-58-12.875-16.896-30.213-25.34-51.997-25.34-22.666 0-39.995 8.451-51.992 25.34-9.333 12.889-14.001 32.224-14.001 58v86.67zM316.004 896.676l35.336-130.008 33.998 130.008h50.003l-59.994-197.334v-133.999h-49.332v133.999c-4.894 24.443-15.115 59.555-30.668 105.329-10.22 30.668-15.334 46.003-15.334 46.003l-16.007 46.003h51.999zM865.35 91.997c-4.444-19.101-13.889-35.32-28.345-48.667-14.433-13.328-31.203-21.111-50.32-23.341-60.882-6.657-152.45-9.994-274.666-9.994-122.225 0-213.78 3.339-274.666 9.994-19.108 2.23-35.883 10.013-50.332 23.341-14.445 13.347-23.885 29.566-28.331 48.667-8.885 37.34-13.328 95.123-13.328 173.337 0 76.905 4.444 134.662 13.328 173.337 4.448 19.556 13.889 35.892 28.331 49.008 14.449 13.116 31.444 20.784 51.002 23.002 60.436 6.676 151.771 10.003 273.996 10.003 122.671 0 214.231-3.337 274.666-10.003 19.117-2.225 35.983-9.884 50.654-23.002 14.671-13.109 24.238-29.443 28.679-49.008 8.43-36.887 12.658-94.66 12.658-173.337 0.002-78.212-4.444-135.986-13.326-173.337zM199.999 388.667h52.001v-281.996h49.332v281.996h53.335v46.668h-154.669zM444.006 164.668c-9.777-13.767-19.115-20.658-27.999-20.658-6.223 0-9.557 3.332-10.001 9.996-0.446 0.887-0.67 6.664-0.67 17.34v180.004h-43.999v-193.332c0-16.892 1.336-28.894 4.005-35.99 3.998-12.45 13.335-18.666 27.999-18.666 16.443 0 33.333 9.996 50.666 29.998v-26.676h44.66v244.649h-44.66v-186.666zM616.682 354.675c-16 0-31.117-8.887-45.326-26.673v107.333h-44.669v-328.664h44.669v24.002c14.655-18.218 29.783-27.327 45.326-27.327 18.227 0 29.998 9.333 35.32 27.999 3.115 9.333 4.665 25.555 4.665 48.665v97.329c0 23.558-1.567 40.004-4.665 49.337-5.324 18.666-17.095 27.999-35.32 27.999zM612.678 176.668c0-21.774-6.44-32.649-19.336-32.665-7.542 0-14.888 3.561-22.001 10.673v149.335c7.113 7.094 14.456 10.657 22.001 10.657 12.896 0 19.336-11.098 19.336-33.323v-104.678zM778.657 177.004c0-4.665-0.114-8.324-0.32-10.996-0.217-2.669-0.339-4.226-0.339-4.665-2.662-11.547-9.333-17.324-20-17.324-15.112 0-22.671 11.332-22.671 33.994v43.327h88.669v50.677c0 25.772-4.658 44.877-13.999 57.328-11.988 16.885-29.328 25.34-51.999 25.34s-40.441-8.453-53.339-25.34c-8.887-12.002-13.328-31.124-13.328-57.328v-86.004c0-26.225 4.665-45.342 13.999-57.344 12.896-16.885 30.893-25.34 54.012-25.34 23.556 0 41.328 8.887 53.339 26.673 5.329 8.007 8.677 16.892 10.003 26.666 0.88 6.225 1.326 15.783 1.326 28.67v6.001h-45.34v-14.337h-0.014zM735.344 280.678c0 22.662 7.337 33.994 22.001 33.994 14.671 0 21.998-11.332 21.998-33.994v-22.678h-43.999v22.678zM502.004 602.68c14.223 0 21.331 11.327 21.331 33.994v104.003c0 23.105-7.108 34.668-21.331 34.668-14.22 0-21.331-11.563-21.331-34.668v-104.003c0-22.659 7.11-33.994 21.331-33.994z" />
<glyph unicode="&#xe93c;" glyph-name="in2" d="M766.579 959.594h-509.97c-141.297 0-256.609-115.312-256.609-256.609v-510.782c0-140.485 115.312-255.797 256.609-255.797h510.782c141.297 0 256.609 115.312 256.609 256.609v509.97c-0.812 141.297-116.124 256.609-257.421 256.609zM341.063 131.299h-146.17v422.268h146.17v-422.268zM267.166 618.531c-41.415 0-74.709 33.294-74.709 74.709s33.294 74.709 74.709 74.709c41.415 0 74.709-33.294 74.709-74.709-0.812-41.415-34.106-74.709-74.709-74.709zM829.107 131.299h-122.62v204.638c0 49.535-6.496 112.875-73.897 112.875-69.025 0-80.393-53.596-80.393-109.627v-207.886h-121.808v422.268h113.688v-56.844h3.248c17.865 32.482 59.28 57.656 124.244 57.656 133.989 0 157.538-77.145 157.538-191.645v-231.435z" />
<glyph unicode="&#xe93d;" glyph-name="twitter21" d="M967.665 903.672c-37.54 37.55-82.77 56.328-135.654 56.328h-640.005c-52.884 0-98.114-18.778-135.671-56.328-37.55-37.557-56.328-82.784-56.328-135.671v-639.998c0-52.882 18.778-98.114 56.328-135.671 37.557-37.557 82.787-56.335 135.671-56.335h639.998c52.884 0 98.114 18.778 135.654 56.335 37.557 37.557 56.335 82.787 56.335 135.671v639.998c-0.002 52.886-18.781 98.121-56.328 135.671zM783.339 565.997c0.446-4 0.672-9.989 0.672-18.003 0-37.335-5.45-74.78-16.334-112.325-10.884-37.564-27.553-73.563-50.007-108.005-22.43-34.44-49.209-64.893-80.316-91.335-31.114-26.433-68.442-47.553-112.007-63.319-43.544-15.79-90.219-23.684-139.993-23.684-77.327 0-148.882 20.903-214.663 62.663 10.666-1.326 21.784-1.996 33.333-1.996 64.447 0 122.447 20 174.005 60.011-30.218 0.432-57.223 9.758-80.998 27.999-23.782 18.22-40.333 41.328-49.669 69.33 11.551-1.775 20.217-2.655 25.994-2.655 9.777 0 21.113 1.775 33.998 5.322-32.443 6.232-59.772 22.328-81.995 48.328-22.227 26.003-33.337 55.667-33.337 88.998v1.333c23.549-11.103 45.771-16.88 66.663-17.331-40.445 27.117-60.667 66-60.667 116.666 0 24.892 6.44 48.445 19.329 70.668 35.107-43.114 77.783-77.554 127.998-103.33 50.22-25.774 104.003-40.226 161.333-43.334-2.218 8.444-3.332 19.115-3.332 31.999 0 38.673 13.667 71.667 41.003 99.003 27.327 27.334 60.33 41.006 98.992 41.006 40.898 0 74.906-14.671 102.013-44.006 30.668 5.777 60.459 17.116 89.339 33.998-11.108-34.213-31.787-60.216-61.995-77.995 28.88 4.007 55.761 11.558 80.645 22.669-18.664-28.443-42.005-52.665-70.005-72.674z" />
<glyph unicode="&#xe93e;" glyph-name="flopy" d="M973.992 831.234l-78.758 78.758c-32 32.047-75.391 50.008-120.664 50.008h-657.234c-64.813 0-117.336-52.523-117.336-117.336v-789.328c0-64.813 52.523-117.336 117.336-117.336h789.328c64.813 0 117.336 52.523 117.336 117.336v657.234c0 45.273-17.961 88.664-50.008 120.664zM170.664 693.336v106.664c0 17.664 14.336 32 32 32h448c17.664 0 32-14.336 32-32v-106.664c0-17.664-14.336-32-32-32h-448c-17.664 0-32 14.336-32 32zM512 106.664c-106.023 0-192 85.977-192 192 0 106.031 85.977 192 192 192s192-85.969 192-192c0-106.023-85.977-192-192-192z" />
<glyph unicode="&#xe93f;" glyph-name="export-white" horiz-adv-x="1030" d="M393.152 384.768c22.452 0.373 40.982 16.704 44.759 38.122l0.041 0.278c0.547 7.961 1.845 15.363 3.834 22.476l-0.186-0.78c5.664 19.871 11.593 36.303 18.468 52.232l-1.060-2.76c9.488 23.856 20.668 44.41 33.938 63.394l-0.658-0.994c53.016 78.173 141.447 128.864 241.719 128.864 4.55 0 9.076-0.104 13.576-0.311l-0.638 0.023 3.712-1.28c0.058 0 0.126 0 0.195 0 24.46 0 44.288 19.828 44.288 44.288 0 0.18-0.001 0.36-0.003 0.54v-0.027 51.52l124.864-117.504-125.376-103.808v42.048c0.002 0.152 0.003 0.332 0.003 0.512 0 24.46-19.828 44.288-44.288 44.288-0.069 0-0.137 0-0.206 0h0.011c-0.153 0.002-0.334 0.003-0.515 0.003-24.46 0-44.288-19.828-44.288-44.288 0-0.181 0.001-0.362 0.003-0.542v0.027-137.216c-0.012-0.379-0.020-0.824-0.020-1.272 0-17.261 10.61-32.043 25.664-38.181l0.275-0.099c5.402-2.347 11.694-3.713 18.305-3.713 0.112 0 0.224 0 0.336 0.001h-0.017c0.108-0.001 0.236-0.001 0.364-0.001 10.687 0 20.5 3.742 28.2 9.987l-0.083-0.065 234.816 195.328c9.914 8.276 16.176 20.638 16.176 34.463 0 12.678-5.266 24.125-13.73 32.275l-0.014 0.014-234.24 223.68c-7.495 7.693-17.957 12.466-29.533 12.466-6.808 0-13.231-1.651-18.89-4.574l0.23 0.108c-16.002-5.771-27.235-20.824-27.235-38.502 0-0.595 0.013-1.186 0.038-1.774l-0.003 0.084v-112.448c-121.293-6.894-226.128-71.599-288.093-166.773l-0.866-1.419c-33.468-47.54-57.136-104.38-66.781-165.872l-0.291-2.256c-0.259-1.791-0.407-3.859-0.407-5.961 0-21.985 16.183-40.19 37.286-43.353l0.241-0.030c1.723-0.814 3.742-1.29 5.873-1.29 0.185 0 0.37 0.004 0.553 0.011l-0.026-0.001zM812.224-64c61.301 0.325 110.907 49.931 111.232 111.201v252.255c-1.134 24.096-20.384 43.346-44.375 44.476l-0.105 0.004c-0.152 0.002-0.332 0.003-0.512 0.003-24.46 0-44.288-19.828-44.288-44.288 0-0.069 0-0.137 0-0.206v0.011-252.224c0.008-0.221 0.013-0.48 0.013-0.74 0-6.069-2.615-11.527-6.78-15.309l-0.017-0.015c-3.971-3.911-9.408-6.344-15.413-6.4h-700.747c-0.125-0.002-0.272-0.004-0.42-0.004-6.278 0-11.987 2.437-16.233 6.416l0.013-0.012c-4.182 3.776-6.799 9.217-6.799 15.269 0 0.28 0.006 0.558 0.017 0.835l-0.001-0.040v725.696c-0.001 0.076-0.001 0.167-0.001 0.257 0 12.831 10.401 23.232 23.232 23.232 0.068 0 0.136 0 0.204-0.001h314.102c0.25-0.005 0.545-0.008 0.84-0.008 11.99 0 22.835 4.899 30.644 12.804l0.004 0.004c8.022 7.86 12.995 18.805 12.995 30.912s-4.973 23.052-12.988 30.905l-0.007 0.007c-7.774 7.91-18.587 12.812-30.544 12.812-0.354 0-0.708-0.004-1.060-0.013l0.052 0.001h-313.984c-0.537 0.010-1.17 0.015-1.804 0.015-30.026 0-57.192-12.242-76.78-32.007l-0.008-0.008c-20.225-19.395-32.793-46.638-32.793-76.817 0-0.804 0.009-1.606 0.027-2.406l-0.002 0.119v-725.504c-0.003-0.307-0.005-0.669-0.005-1.032 0-30.427 12.684-57.892 33.054-77.395l0.039-0.037c19.515-20.221 46.856-32.778 77.13-32.778 0.514 0 1.027 0.004 1.54 0.011l-0.078-0.001z" />
<glyph unicode="&#xe940;" glyph-name="link" d="M936.843 447.971c53.763 53.752 87.017 128.016 87.017 210.046 0 27.746-3.805 54.604-10.92 80.080l0.498-2.090c-14.673 53.034-42.018 98.484-78.635 134.546l-0.038 0.037c-36.078 36.687-81.536 64.041-132.491 78.177l-2.092 0.495c-23.495 6.695-50.479 10.544-78.362 10.544-81.946 0-156.126-33.247-209.788-86.989l-170.632-170.661 81.189-81.364 170.715 170.745c22.21 22.258 50.207 38.731 81.543 46.97l1.254 0.28c14.48 4.020 31.107 6.33 48.274 6.33s33.794-2.31 49.588-6.637l-1.314 0.307c63.908-16.811 113.237-66.14 129.766-128.788l0.282-1.26c4.020-14.48 6.33-31.107 6.33-48.274s-2.31-33.794-6.637-49.588l0.307 1.314c-8.52-32.59-24.993-60.588-47.247-82.794l-170.631-170.631 81.189-81.364zM682.686 194.019l-81.189 81.335-170.715-170.745c-22.21-22.258-50.207-38.731-81.543-46.97l-1.254-0.28c-14.48-4.020-31.107-6.33-48.274-6.33s-33.794 2.31-49.588 6.637l1.314-0.307c-63.908 16.811-113.237 66.14-129.766 128.788l-0.282 1.26c-4.020 14.48-6.33 31.107-6.33 48.274s2.31 33.794 6.637 49.588l-0.307-1.314c8.52 32.59 24.993 60.588 47.247 82.794l170.631 170.631-81.218 81.335-170.832-170.745c-36.373-35.873-63.303-81.229-76.782-132.061l-0.457-2.025c-6.358-22.797-10.013-48.975-10.013-76.007 0-27.738 3.848-54.577 11.039-80.012l-0.5 2.068c29.598-103.751 109.651-183.804 211.234-212.871l2.167-0.531c23.361-6.71 50.193-10.569 77.927-10.569 27.030 0 53.203 3.665 78.050 10.526l-2.055-0.484c52.85 13.958 98.201 40.884 134.055 77.208l170.659 170.659zM722.388 575.005l-83.354 83.324-337.335-337.335 83.354-83.354z" />
</font>
</defs>
</svg>
